<?xml version="1.0" standalone="no"?>
<!DOCTYPE svg PUBLIC "-//W3C//DTD SVG 1.1//EN" "http://www.w3.org/Graphics/SVG/1.1/DTD/svg11.dtd" >
<svg xmlns="http://www.w3.org/2000/svg">
  <metadata>Created by iconfont</metadata>
  <defs>
  <font id="iconfont" horiz-adv-x="1024">
    <font-face
      font-family="iconfont"
      font-weight="400"
      font-stretch="normal"
      units-per-em="1024"
      ascent="896"
      descent="-128"
    />
      <missing-glyph />
      
      <glyph glyph-name="daochu" unicode="&#58890;" d="M909.5 224.6h-625c-17.7 0-32 14.3-32 32s14.3 32 32 32h625c17.7 0 32-14.3 32-32s-14.3-32-32-32zM904.8 233.3c-8.2 0-16.4 3.1-22.6 9.4l-225 225c-12.5 12.5-12.5 32.8 0 45.3s32.8 12.5 45.3 0l225-225c12.5-12.5 12.5-32.8 0-45.3-6.3-6.3-14.5-9.4-22.7-9.4zM679.5-9.2c-8.2 0-16.4 3.1-22.6 9.4-12.5 12.5-12.5 32.8 0 45.3l225 225c12.5 12.5 32.8 12.5 45.3 0s12.5-32.8 0-45.3l-225-225c-6.3-6.3-14.5-9.4-22.7-9.4zM448.2-62.3H229.7c-89.3 0-162 72.7-162 162V667.8c0 89.3 72.7 162 162 162h568.1c89.3 0 162-72.7 162-162v-208.1c0-17.7-14.3-32-32-32s-32 14.3-32 32V667.8c0 54-44 98-98 98H229.7c-54 0-98-44-98-98v-568.1c0-54 44-98 98-98h218.5c17.7 0 32-14.3 32-32s-14.3-32-32-32z"  horiz-adv-x="1024" />
      
      <glyph glyph-name="daoru" unicode="&#58891;" d="M926.4 258.29999999999995H299c-17.7 0-32 14.3-32 32s14.3 32 32 32h627.4c17.7 0 32-14.3 32-32s-14.3-32-32-32zM529.6 23.799999999999955c-8.2 0-16.4 3.1-22.6 9.4L281.2 259c-12.5 12.5-12.5 32.8 0 45.3s32.8 12.5 45.3 0l225.8-225.8c12.5-12.5 12.5-32.8 0-45.3-6.3-6.3-14.5-9.4-22.7-9.4zM304.1 267.20000000000005c-8.2 0-16.4 3.1-22.6 9.4-12.5 12.5-12.5 32.8 0 45.3l225.8 225.8c12.5 12.5 32.8 12.5 45.3 0s12.5-32.8 0-45.3L326.7 276.6c-6.2-6.3-14.4-9.4-22.6-9.4zM447.6-62.299999999999955H229.1c-89.3 0-162 72.7-162 162V667.8c0 89.3 72.7 162 162 162h568.1c89.3 0 162-72.7 162-162v-208.1c0-17.7-14.3-32-32-32s-32 14.3-32 32V667.8c0 54-44 98-98 98H229.1c-54 0-98-44-98-98v-568.1c0-54 44-98 98-98h218.5c17.7 0 32-14.3 32-32s-14.3-32-32-32z"  horiz-adv-x="1024" />
      
      <glyph glyph-name="shangchuan" unicode="&#58968;" d="M768.35456 480a256 256 0 1 1-512 0 192 192 0 1 1 0-384v-64a256 256 0 0 0-58.88 505.216 320.128 320.128 0 0 0 629.76 0A256.128 256.128 0 0 0 768.35456 32v64a192 192 0 0 1 0 384z m-512-384h128v-64H256.35456v64z m384 0h128v-64h-128v64zM539.04256 306.81600000000003v-333.056a32.448 32.448 0 0 0-32-32.192 32.448 32.448 0 0 0-32 32.192V306.81600000000003l-36.096-36.096a32.192 32.192 0 0 0-45.056 0.192 31.616 31.616 0 0 0-0.192 45.056l90.88 90.88a31.36 31.36 0 0 0 22.528 9.152 30.08 30.08 0 0 0 22.4-9.088l90.88-90.944a32.192 32.192 0 0 0-0.192-45.056 31.616 31.616 0 0 0-45.056-0.192l-36.096 36.096z"  horiz-adv-x="1024" />
      
      <glyph glyph-name="xiazai" unicode="&#58969;" d="M768.35456 480a256 256 0 1 1-512 0 192 192 0 1 1 0-384v-64a256 256 0 0 0-58.88 505.216 320.128 320.128 0 0 0 629.76 0A256.128 256.128 0 0 0 768.35456 32v64a192 192 0 0 1 0 384z m-512-384h64v-64H256.35456v64z m448 0h64v-64h-64v64zM539.04256 50.75199999999995V383.808a32.448 32.448 0 0 1-32 32.192c-17.664 0-32-14.912-32-32.192v-333.056l-36.096 36.096a32.192 32.192 0 0 1-45.056-0.192 31.616 31.616 0 0 1-0.192-45.056l90.88-90.944a31.36 31.36 0 0 1 22.528-9.088 30.08 30.08 0 0 1 22.4 9.088l90.88 90.88a32.192 32.192 0 0 1-0.192 45.12 31.616 31.616 0 0 1-45.056 0.192l-36.096-36.096z"  horiz-adv-x="1024" />
      
      <glyph glyph-name="weixin" unicode="&#58923;" d="M692.699238 559.112294c11.619123 0 23.117414-0.831898 34.517504-2.108006C696.19497 701.450035 541.769728 808.772403 365.488742 808.772403 168.405197 808.772403 6.977229 674.464461 6.977229 503.892582c0-98.493235 53.707366-179.306803 143.459123-242.033357l-35.857101-107.840102 125.329408 62.837146c44.84311-8.861798 80.827085-18.002022 125.578138-18.002022 11.250688 0 22.40215 0.561766 33.469645 1.428582-7.001702 23.95351-11.06647 49.054208-11.06647 75.120947C387.891917 432.023757 522.3936 559.112294 692.699238 559.112294zM497.405542 663.593882c30.611456 0 55.425536-24.815206 55.425536-55.427379s-24.814182-55.426355-55.425536-55.426355c-30.613504 0-55.427584 24.815206-55.427584 55.426355S466.794086 663.593882 497.405542 663.593882zM246.567526 551.622656c-30.611456 0-55.427584 24.815206-55.427584 55.426355 0 30.611149 24.81623 55.426355 55.427584 55.426355 30.613504 0 55.428608-24.815206 55.428608-55.426355C301.996134 576.438886 277.18103 551.622656 246.567526 551.622656zM1017.379942 278.544179c0 143.330406-143.423283 260.165325-304.515686 260.165325-170.58089 0-304.924979-116.834918-304.924979-260.165325 0-143.57801 134.34409-260.158157 304.924979-260.158157 35.697459 0 71.712154 9.0112 107.569254 17.99895l98.340659-53.861683-26.969293 89.592525C963.769856 126.102323 1017.379942 197.690778 1017.379942 278.544179zM619.184947 318.724301c-21.799322 0-39.469466 17.673523-39.469466 39.471002 0 21.799526 17.671168 39.468954 39.469466 39.468954s39.469466-17.670451 39.469466-39.468954C658.656563 336.3968 640.983347 318.724301 619.184947 318.724301zM816.270541 316.485325c-21.80137 0-39.47049 17.672499-39.47049 39.468954 0 21.80055 17.670144 39.468954 39.47049 39.468954 21.798298 0 39.469466-17.669427 39.469466-39.468954C855.741133 334.157824 838.068941 316.485325 816.270541 316.485325z"  horiz-adv-x="1024" />
      
      <glyph glyph-name="QQ" unicode="&#58961;" d="M785.066667 170.666667c-4.266667-55.466667-29.866667-106.666667-72.533334-140.8 38.4-17.066667 93.866667-34.133333 93.866667-72.533334H217.6c0 34.133333 55.466667 55.466667 89.6 72.533334-38.4 38.4-64 89.6-72.533333 140.8v17.066666l-72.533334-72.533333c-17.066667-17.066667-34.133333-17.066667-34.133333 38.4 0 34.133333 110.933333 302.933333 110.933333 302.933333v85.333334c4.266667 153.6 128 273.066667 281.6 268.8 145.066667-4.266667 260.266667-119.466667 264.533334-264.533334v-89.6s110.933333-268.8 110.933333-302.933333c0-55.466667-17.066667-55.466667-38.4-34.133333-55.466667 51.2-72.533333 72.533333-72.533333 72.533333v-21.333333z"  horiz-adv-x="1024" />
      
      <glyph glyph-name="suozhu" unicode="&#58975;" d="M224 448a31.168 31.168 0 0 1-23.04-8.96 31.168 31.168 0 0 1-8.96-23.04v-384c0-9.344 3.008-17.024 8.96-23.04 6.016-5.952 13.696-8.96 23.04-8.96h576a31.168 31.168 0 0 1 23.04 8.96 31.168 31.168 0 0 1 8.96 23.04v384a31.168 31.168 0 0 1-8.96 23.04 31.168 31.168 0 0 1-23.04 8.96h-576z m0 64h576c27.328-0.64 49.984-9.984 68.032-28.032 17.92-17.92 27.328-40.64 27.968-67.968v-384c-0.64-27.328-9.984-49.984-28.032-68.032-17.92-17.92-40.64-27.328-67.968-27.968h-576c-27.328 0.64-49.984 9.984-68.032 28.032-17.92 17.92-27.328 40.64-27.968 67.968v384c0.64 27.328 9.984 49.984 28.032 68.032 17.92 17.92 40.64 27.328 67.968 27.968zM512 352c9.344 0 17.024-3.008 23.04-8.96 5.952-6.016 8.96-13.696 8.96-23.04v-192a31.168 31.168 0 0 0-8.96-23.04 31.168 31.168 0 0 0-23.04-8.96 31.168 31.168 0 0 0-23.04 8.96 31.168 31.168 0 0 0-8.96 23.04V320c0 9.344 3.008 17.024 8.96 23.04A31.168 31.168 0 0 0 512 352zM704 512V576c-1.344 54.656-20.032 100.032-56 136S566.72 766.656 512 768c-54.656-1.344-100.032-20.032-136-56S321.344 630.72 320 576v-64h384zM512 832c72.64-1.984 132.992-27.008 180.992-75.008S765.952 648.64 768 576v-128H256V576c1.984 72.64 27.008 132.992 75.008 180.992S439.36 829.952 512 832z"  horiz-adv-x="1024" />
      
      <glyph glyph-name="jiesuo" unicode="&#58976;" d="M224 448a31.168 31.168 0 0 1-23.04-9.024 31.168 31.168 0 0 1-8.96-23.04v-384c0-9.344 3.008-17.024 8.96-23.04 6.016-5.952 13.696-8.96 23.04-8.96h576a31.168 31.168 0 0 1 23.04 8.96 31.168 31.168 0 0 1 8.96 23.04v384a31.168 31.168 0 0 1-8.96 23.04 31.168 31.168 0 0 1-23.04 8.96h-576z m0 64h576c27.328-0.704 49.984-10.048 68.032-28.032 17.92-18.048 27.328-40.704 27.968-68.032v-384c-0.64-27.328-9.984-49.984-28.032-67.968-17.92-18.048-40.64-27.392-67.968-28.032h-576c-27.328 0.64-49.984 9.984-68.032 28.032-17.92 17.984-27.328 40.64-27.968 67.968v384c0.64 27.328 9.984 49.984 28.032 68.032 17.92 17.92 40.64 27.328 67.968 27.968zM512 352c9.344 0 17.024-3.072 23.04-9.024 5.952-6.016 8.96-13.696 8.96-23.04v-192a31.168 31.168 0 0 0-8.96-23.04 31.168 31.168 0 0 0-23.04-8.96 31.168 31.168 0 0 0-23.04 8.96 31.168 31.168 0 0 0-8.96 23.04V320c0 9.344 3.008 17.024 8.96 23.04a31.168 31.168 0 0 0 23.04 8.96z m177.984 294.976c-17.92 43.328-46.656 75.648-86.016 96.96a192 192 0 0 1-128 20.032c-45.952-9.344-83.264-31.232-112-65.536C335.36 664.1279999999999 320.64 623.36 320 576v-64h352l96-38.016V448H256v128c1.344 62.656 20.864 116.992 58.496 163.008 37.632 45.952 87.488 75.648 149.504 88.96 61.312 10.688 118.144 1.664 170.496-27.008 52.352-28.672 90.88-72 115.52-129.984l-60.032-23.936z"  horiz-adv-x="1024" />
      
      <glyph glyph-name="quanxian" unicode="&#58896;" d="M513.169577 896L115.983092 769.835587c-14.864629-4.708299-24.960981-18.503314-24.980974-34.09768l2.04926-496.120737 0.46983-5.667952a347.046602 347.046602 0 0 1 98.244502-166.21994c62.43744-61.587747 215.662075-142.098656 281.048449-176.456242 10.276287-5.408046 17.943517-9.416598 22.331931-11.84572l7.457305-4.048537a17.468688 17.468688 0 0 1 16.324102-0.209924l10.866074 5.537999c38.366137 18.753224 232.545975 115.808155 304.749885 186.982438 47.872702 44.953757 81.970382 102.602927 98.284487 166.21994l2.299169 501.618751a35.791068 35.791068 0 0 1-24.980973 34.307604L513.169577 896z m355.171667-652.834113a295.624183 295.624183 0 0 0-79.791169-130.632798c-57.239318-56.469596-212.38326-137.110458-268.772885-165.540186a17.403712 17.403712 0 0 0-16.064196 0C446.21377-22.83799799999997 293.628904 57.333034 237.969015 112.27318300000002a294.415619 294.415619 0 0 0-79.831155 130.632798L156.128586 703.859426a15.91425 15.91425 0 0 0 11.036013 15.174517L502.383475 825.5854429999999a35.401209 35.401209 0 0 0 21.312299 0l335.218876-106.5515a15.902254 15.902254 0 0 0 11.12598-15.174517l-1.919307-460.703535h0.219921zM519.227389 656.586507c38.805978 0.079971 76.062516-15.254488 103.562579-42.614602a142.950348 142.950348 0 0 0 42.624599-102.273046 142.968342 142.968342 0 0 0-43.224382-102.01314 146.032234 146.032234 0 0 0-67.215713-37.126585l-0.419848-60.478148h60.6081c9.646514 0.079971 18.933159-3.688667 25.800678-10.476214a36.234907 36.234907 0 0 0 10.776106-25.670725 35.860043 35.860043 0 0 0-10.826088-25.57076A36.746722 36.746722 0 0 0 614.962797 239.787108h-60.608101l-0.259906-100.93353a35.877037 35.877037 0 0 0-10.826088-25.57076 36.677747 36.677747 0 0 0-25.950624-10.566182c-9.646514-0.079971-18.933159 3.688667-25.800677 10.476214a36.251901 36.251901 0 0 0-10.776106 25.670725l0.899675 233.905483a145.674364 145.674364 0 0 0-66.955807 37.336509 143.0843 143.0843 0 0 0 0.46983 204.586078 146.827947 146.827947 0 0 0 103.912453 42.114782l0.159943-0.21992z m88.138153-143.158273a83.41486 83.41486 0 0 1-25.100931 60.13827c-33.84777 33.217997-88.038189 33.337954-122.025908 0.24991a83.175946 83.175946 0 0 1-25.570761-59.878364 84.142597 84.142597 0 0 1 25.100931-60.218242 85.863975 85.863975 0 0 1 60.868006-24.891006c46.973027 0.459834 85.209212 37.906303 86.648692 84.859338l0.079971-0.259906z m0 0"  horiz-adv-x="1024" />
      
      <glyph glyph-name="cuowu" unicode="&#58946;" d="M870.4-23.46666700000003H153.6c-53.333333 0-96 42.666667-96 96 0 17.066667 4.266667 34.133333 12.8 49.066667L428.8 742.4c25.6 46.933333 85.333333 61.866667 130.133333 36.266667 14.933333-8.533333 27.733333-21.333333 36.266667-36.266667l358.4-620.8c17.066667-29.866667 17.066667-66.133333 0-96s-49.066667-49.066667-83.2-49.066667zM484.266667 710.4L125.866667 89.60000000000002c-8.533333-14.933333-4.266667-34.133333 10.666666-42.666667 4.266667-2.133333 10.666667-4.266667 17.066667-4.266666h716.8c17.066667 0 32 14.933333 32 32 0 6.4-2.133333 10.666667-4.266667 17.066666l-358.4 618.666667c-8.533333 14.933333-27.733333 21.333333-42.666666 12.8-6.4-4.266667-10.666667-8.533333-12.8-12.8zM512 238.93333299999995c-17.066667 0-32 14.933333-32 32v256c0 17.066667 14.933333 32 32 32s32-14.933333 32-32v-256c0-17.066667-14.933333-32-32-32zM512 145.06666700000005m-32 0a32 32 0 1 1 64 0 32 32 0 1 1-64 0Z"  horiz-adv-x="1024" />
      
      <glyph glyph-name="charulianjie-" unicode="&#59003;" d="M347.4-36.60000000000002c-68.4 0-132.7 26.6-181 75s-75 112.6-75 181 26.6 132.7 75 181l99.2 99.2c9.1 9.1 23.8 9.1 32.9 0 9.1-9.1 9.1-23.8 0-32.9l-99.2-99.2c-81.7-81.7-81.7-214.6 0-296.2 81.7-81.7 214.6-81.7 296.2 0l98.5 98.5c9.1 9.1 23.8 9.1 32.9 0 9.1-9.1 9.1-23.8 0-32.9l-98.5-98.5c-48.3-48.3-112.6-75-181-75z m37.2 261.4c-6 0-11.9 2.3-16.5 6.8-9.1 9.1-9.1 23.8 0 32.9l65.9 65.9 0.1 0.1 197.4 197.4c9.1 9.1 23.8 9.1 32.9 0 9.1-9.1 9.1-23.8 0-32.9L401.1 231.60000000000002c-4.6-4.5-10.5-6.8-16.5-6.8z m358.6 38c-6 0-11.9 2.3-16.5 6.8-9.1 9.1-9.1 23.8 0 32.9l97.9 97.9c81.7 81.7 81.7 214.6 0 296.2-81.7 81.7-214.6 81.7-296.2 0L430 598.2c-9.1-9.1-23.8-9.1-32.9 0-9.1 9.1-9.1 23.8 0 32.9l98.5 98.5c48.4 48.4 112.6 75 181 75s132.7-26.6 181-75 75-112.6 75-181-26.6-132.7-75-181l-97.9-97.9c-4.6-4.6-10.6-6.9-16.5-6.9z"  horiz-adv-x="1024" />
      
      <glyph glyph-name="shanchu" unicode="&#58887;" d="M92.748283 692.492929h838.503434v-44.140606H92.748283zM644.402424 780.761212v-44.127677h44.127677V780.761212c0 24.384646-19.75596 44.127677-43.998384 44.127677h-265.050505a43.97899 43.97899 0 0 1-31.172525-12.916364 43.918222 43.918222 0 0 1-12.825859-31.211313v-44.127677h44.127677V780.761212h264.791919z m0 0M203.073939-13.614545000000021v661.979798H158.946263V-13.57575799999995c0-24.410505 19.639596-44.179394 44.179394-44.179394h617.761616c24.410505 0 44.179394 19.639596 44.179394 44.179394V648.3652529999999H820.926061v-661.979798H203.073939z m0 0M313.412525 560.09697h44.127677V162.909091h-44.127677V560.09697z m176.523637 0h44.127676V162.909091H489.936162V560.09697z m176.523636 0h44.127677V162.909091h-44.127677V560.09697z m0 0"  horiz-adv-x="1024" />
      
      <glyph glyph-name="chakanxiangqing" unicode="&#58883;" d="M1232.8797879 369.42595733999997l-1.8669254-9.51529835-0.60223482-1.3249149-0.24089309-0.72268095a32.52063894 32.52063894 0 0 0-2.58960635-6.50412762l-0.18067045-0.3011174-0.12044695-0.30111658a682.03007063 682.03007063 0 0 0-234.50994197-281.48419886c-102.01844944-70.28071491-216.26225051-107.49877954-330.2049342-107.49877953-232.52256958 0-459.98637341 157.36375937-565.85912063 391.63280822a47.51626739 47.51626739 0 0 0-1.32491492 3.61340469l-0.18067044 0.66245747-0.2408931 0.60223398a27.28120276 27.28120276 0 0 0-1.44536188 4.09519171l-0.30111739 1.44536105a57.81446933 57.81446933 0 0 0-1.14424448 6.92569198v1.14424448l-0.30111657 0.90335138a147.18600357 147.18600357 0 0 0-1.08402183 8.19038342 28.96745857 28.96745857 0 0 0 0 5.60077625s0.42156354 4.33608481 0.96357486 8.25060691l0.18066963 0.06022347 0.42156436 3.37251078 0.06022348 0.42156353v0.60223398l0.24089309 1.86692542c0.06022348 0.42156354 0.36134006 2.83050027 1.44536187 6.14278756l0.18067045 0.48178702 0.60223397 1.50558535 0.12044696 0.42156436 0.12044697 0.42156355a26.25740525 26.25740525 0 0 0 2.04759586 5.23943618l0.1806696 0.36134006C202.69820822 649.04322996 429.92111814 805.80475535 662.56413467 805.80475535c232.70324002 0 460.16704386-157.30353589 565.91934412-391.51236045l0.06022348-0.18067044c0.5420105-1.14424447 1.20446797-3.13161685 1.3851384-3.91452127l0.12044695-0.42156437 0.48178702-1.08402099a61.36765054 61.36765054 0 0 0 2.52938288-12.04468122l0.18067044-1.92714889 0.42156436-0.90335138c0.24089392-1.44536188 0.90335137-5.35988315 0.90335056-10.11753149 0-5.78144668-0.96357486-10.7197663-1.68625499-14.27294751z m-56.67022485 16.26031988a10.23797928 10.23797928 0 0 0-0.24089391 1.68625498l-0.36134006 2.52938287-0.36134089 0.8431279-0.18067044 0.60223398-0.06022265 0.18067044-0.18067045 0.66245745-0.48178701 1.14424449C1077.5034009 605.01992111 871.84046973 747.26760507 662.56413467 747.26760507c-195.00338754 0-388.26029746-123.5182055-492.32634192-314.78774222l-11.68334116-22.88489364h-0.12044613l-2.7702768-5.60077707-5.11899004-10.84021326-0.2408931-0.48178701-0.12044696-0.48178703-0.42156354-1.26469144-0.12044695-0.36134087-0.36134089-1.084021-0.12044696-1.20446796a3.01116989 3.01116989 0 0 0-0.18066962-1.02379833l-0.36134088-1.32491492v-2.40893591l0.12044696-0.60223399 0.24089392-1.92714889 0.12044696-0.78290441 0.12044615-1.44536188 0.48178784-1.32491492a7.58814944 7.58814944 0 0 0 0.18066961-0.60223398l0.36134088-1.14424447 0.18067044-0.54201133 0.2408931-0.54201049a635.4171546 635.4171546 0 0 1 214.03398422-256.67215549c92.20203452-63.89703342 195.18405799-97.62214114 297.86496487-97.62214032 209.09566461 0 414.81881928 142.24768478 511.83872561 353.99317923l0.48178785 0.96357403 0.2408931 1.08402182 0.12044696 0.5420105 0.48178701 1.44536188 0.12044697 0.48178702 0.06022348 0.48178701 0.12044696 0.84312791 0.90335138 2.83050027-0.72268095 2.71005331z m-513.64542838-188.25836682C561.08769657 197.42791039999997 478.46118305 281.01799795 478.46118305 383.81935097999997c0 102.74113037 82.62651269 186.3312171 184.10295162 186.33121793 101.53666241 0 184.10295163-83.59008756 184.10295163-186.33121793 0-102.80135385-82.56628921-186.39144058-184.10295163-186.39144058z m0 314.18550825c-69.61825745 0-126.2884823-57.33268232-126.28848147-127.79406767 0-70.52160801 56.67022485-127.85429032 126.28848147-127.85429031 69.61825745 0 126.2884823 57.33268232 126.2884823 127.85429031 0 70.46138452-56.67022485 127.79406682-126.2884823 127.79406767z"  horiz-adv-x="1389" />
      
      <glyph glyph-name="xueshengyidong" unicode="&#59113;" d="M844.5 213.29999999999995H554.7c-11.7 0-21.3-9.6-21.3-21.3 0-11.7 9.6-21.3 21.3-21.3H896c2.8 0 5.6 0.6 8.2 1.7 0.5 0.2 0.9 0.7 1.4 0.9 1.9 1 3.8 2 5.4 3.6 1.6 1.6 2.6 3.5 3.6 5.4 0.3 0.5 0.7 0.9 0.9 1.4 1.1 2.6 1.7 5.4 1.7 8.2 0 0.2-0.1 0.3-0.1 0.5-0.1 2.6-0.5 5.2-1.6 7.7-0.6 1.5-1.7 2.7-2.7 4-0.7 0.9-1.1 2-1.9 2.9L805.5 312.70000000000005c-8.3 8.3-21.9 8.3-30.2 0s-8.3-21.9 0-30.2l69.2-69.2z m-99.3 410.8C733.3 731.4 646.1 818.7 538.7 830.5c-141.6 15.6-261.4-94.8-261.4-233.2 0-90 50.7-168 125-207.4C231.9 342.1 106.7 185.79999999999995 106.7 0c0-15.5 1.1-30.7 2.9-45.7 1.3-10.5 10.5-18.3 21.1-18.3 12.5 0 22.6 10.8 21.1 23.3-1.6 13.4-2.5 26.9-2.5 40.7 0 200.3 162.4 362.7 362.7 362.7 138.4 0 248.8 119.8 233.2 261.4zM479.5 408c-79.6 13.1-143.8 77.2-156.8 156.8-21.6 131.4 90.4 243.4 221.8 221.8 79.6-13.1 143.8-77.2 156.8-156.8 21.6-131.3-90.4-243.4-221.8-221.8zM896 84.20000000000005H554.7c-2.8 0-5.6-0.6-8.2-1.7-0.5-0.2-0.9-0.7-1.4-0.9-1.9-1-3.8-2-5.4-3.6-1.6-1.6-2.6-3.5-3.6-5.5-0.3-0.5-0.7-0.9-0.9-1.4-1.1-2.6-1.7-5.4-1.7-8.2 0-0.2 0.1-0.3 0.1-0.5 0.1-2.6 0.5-5.2 1.6-7.6 0.6-1.5 1.7-2.7 2.7-4 0.7-0.9 1.1-2 1.9-2.9l105.6-105.6c8.3-8.3 21.9-8.3 30.2 0s8.3 21.9 0 30.2l-69.2 69.1H896c11.7 0 21.3 9.6 21.3 21.3s-9.6 21.3-21.3 21.3z"  horiz-adv-x="1024" />
      
      <glyph glyph-name="baokao" unicode="&#59114;" d="M298.7 682.7c-11.8 0-21.3-9.6-21.3-21.3v-417.2c0-5.6 2.2-11 6.2-15L384 128l100.5 101.1c4 4 6.2 9.4 6.2 15V661.3c0 11.8-9.6 21.3-21.3 21.3H298.7zM448 256.9L384 192l-64 64.9V490.7h128v-233.8z m0 276.4H320V640h128v-106.7z m448-106.6c11.8 0 21.3 9.6 21.3 21.3V588.5c0 5.7-2.2 11.1-6.2 15.1L688.9 825.8c-4 4-9.4 6.2-15.1 6.2H149.3c-23.5 0-42.7-19.2-42.7-42.7v-810.7c0-23.5 19.2-42.7 42.7-42.7h725.3c23.5 0 42.7 19.2 42.7 42.7V277.29999999999995c0 11.8-9.6 21.3-21.3 21.3s-21.3-9.6-21.3-21.3V0c0-11.8-9.6-21.3-21.3-21.3H170.7c-11.8 0-21.3 9.6-21.3 21.3V768c0 11.8 9.6 21.3 21.3 21.3H640V576c0-11.8 9.6-21.3 21.3-21.3h213.3V448c0.1-11.8 9.6-21.3 21.4-21.3zM682.7 597.3V768l170.7-170.7H682.7z"  horiz-adv-x="1024" />
      
      <glyph glyph-name="chengji" unicode="&#59115;" d="M937.6 652.8c12.4 0 22.4 10 22.4 22.4v112c0 24.6-20.2 44.8-44.8 44.8H108.8C84.2 832 64 811.8 64 787.2v-806.4c0-24.6 20.2-44.8 44.8-44.8h806.4c24.6 0 44.8 20.2 44.8 44.8V496c0 12.4-10 22.4-22.4 22.4-12.4 0-22.4-10-22.4-22.4v-492.8c0-12.3-10.1-22.4-22.4-22.4H131.2c-12.3 0-22.4 10.1-22.4 22.4V764.8c0 12.3 10.1 22.4 22.4 22.4h761.6c12.3 0 22.4-10.1 22.4-22.4v-89.6c0-12.4 10-22.4 22.4-22.4zM475.9 527c-0.6 1.4-1.5 2.5-2.3 3.7-0.8 1.2-1.5 2.5-2.5 3.5-0.9 0.9-2 1.5-3 2.2-1.4 1-2.7 1.9-4.2 2.6-0.3 0.1-0.5 0.4-0.8 0.5-1 0.4-2 0.2-3 0.4-1.6 0.3-3.1 0.7-4.7 0.7s-3.1-0.4-4.7-0.7c-1-0.2-2-0.1-3-0.4-0.3-0.1-0.5-0.4-0.8-0.5-1.6-0.6-2.9-1.6-4.2-2.6-1-0.7-2.1-1.3-3-2.2-1-1-1.7-2.3-2.6-3.5-0.8-1.2-1.7-2.4-2.3-3.7-0.1-0.3-0.4-0.6-0.6-0.9L311.8 189.29999999999995c-4.2-11.6 1.8-24.5 13.4-28.7 11.6-4.2 24.5 1.8 28.7 13.4l27.5 75.7h148l27.5-75.7c4.2-11.6 17.1-17.6 28.7-13.4 11.6 4.2 17.6 17.1 13.4 28.7L476.5 526.1c-0.2 0.3-0.4 0.5-0.6 0.9z m-78.2-232.6l57.7 158.5 57.7-158.5H397.7zM680 406.2c12.4 0 22.4 10 22.4 22.4v56h56c12.4 0 22.4 10 22.4 22.4 0 12.4-10 22.4-22.4 22.4h-56v56c0 12.4-10 22.4-22.4 22.4s-22.4-10-22.4-22.4v-56h-56c-12.4 0-22.4-10-22.4-22.4 0-12.4 10-22.4 22.4-22.4h56v-56c0-12.4 10-22.4 22.4-22.4z"  horiz-adv-x="1024" />
      
      <glyph glyph-name="yuejuan" unicode="&#59116;" d="M937.6 652.8c12.4 0 22.4 10 22.4 22.4v112c0 24.6-20.2 44.8-44.8 44.8H108.8C84.2 832 64 811.8 64 787.2v-806.4c0-24.6 20.2-44.8 44.8-44.8h806.4c24.6 0 44.8 20.2 44.8 44.8V496c0 12.4-10 22.4-22.4 22.4-12.4 0-22.4-10-22.4-22.4v-492.8c0-12.3-10.1-22.4-22.4-22.4H131.2c-12.3 0-22.4 10.1-22.4 22.4V764.8c0 12.3 10.1 22.4 22.4 22.4h761.6c12.3 0 22.4-10.1 22.4-22.4v-89.6c0-12.4 10-22.4 22.4-22.4zM747.7 487.6C716.8 526.1 623 630.4 512 630.4c-111 0-204.9-104.4-235.7-142.8-6.6-8.2-6.6-19.8 0-28C307.1 421.2 401 316.79999999999995 512 316.79999999999995c111 0 204.8 104.3 235.7 142.8 6.6 8.2 6.6 19.8 0 28zM512 361.6c-80.7 0-154.6 72.3-189.2 112.2C362.1 519 436.3 585.6 512 585.6c80.7 0 154.6-72.3 189.2-112.2-39.3-45.2-113.4-111.8-189.2-111.8z m0 156.8c-24.7 0-44.8-20.1-44.8-44.8 0-24.7 20.1-44.8 44.8-44.8s44.8 20.1 44.8 44.8c0 24.7-20.1 44.8-44.8 44.8zM310.4 204.79999999999995c-12.3 0-22.4-10.1-22.4-22.4 0-12.3 10.1-22.4 22.4-22.4h403.2c12.3 0 22.4 10.1 22.4 22.4 0 12.3-10.1 22.4-22.4 22.4H310.4z"  horiz-adv-x="1024" />
      
      <glyph glyph-name="kaoheshezhi" unicode="&#59117;" d="M731.9 542.4L462.7 273.20000000000005 336.9 399c-8.7 8.7-23 8.7-31.7 0s-8.7-23 0-31.7L446.6 226c0.1-0.1 0.1-0.3 0.2-0.4 4.4-4.4 10.1-6.5 15.9-6.5 5.8 0 11.5 2.2 15.9 6.5 0.1 0.1 0.1 0.3 0.2 0.4l284.7 284.7c8.7 8.7 8.7 23 0 31.7-8.6 8.7-22.9 8.7-31.6 0z m205.7 110.4c12.4 0 22.4 10 22.4 22.4v112c0 24.6-20.2 44.8-44.8 44.8H108.8C84.2 832 64 811.8 64 787.2v-806.4c0-24.6 20.2-44.8 44.8-44.8h806.4c24.6 0 44.8 20.2 44.8 44.8V496c0 12.4-10 22.4-22.4 22.4-12.4 0-22.4-10-22.4-22.4v-492.8c0-12.3-10.1-22.4-22.4-22.4H131.2c-12.3 0-22.4 10.1-22.4 22.4V764.8c0 12.3 10.1 22.4 22.4 22.4h761.6c12.3 0 22.4-10.1 22.4-22.4v-89.6c0-12.4 10-22.4 22.4-22.4z"  horiz-adv-x="1024" />
      
      <glyph glyph-name="lunwenguanli" unicode="&#59118;" d="M937.6 652.8c12.4 0 22.4 10 22.4 22.4v112c0 24.6-20.2 44.8-44.8 44.8H108.8C84.2 832 64 811.8 64 787.2v-806.4c0-24.6 20.2-44.8 44.8-44.8h806.4c24.6 0 44.8 20.2 44.8 44.8V496c0 12.4-10 22.4-22.4 22.4-12.4 0-22.4-10-22.4-22.4v-492.8c0-12.4-10-22.4-22.4-22.4H131.2c-12.4 0-22.4 10-22.4 22.4V764.8c0 12.4 10 22.4 22.4 22.4h761.6c12.4 0 22.4-10 22.4-22.4v-89.6c0-12.4 10-22.4 22.4-22.4zM758.4 294.4c0 12.3-10.1 22.4-22.4 22.4H288c-12.3 0-22.4-10.1-22.4-22.4 0-12.3 10.1-22.4 22.4-22.4h448c12.3 0 22.4 10.1 22.4 22.4zM736 451.2H556.8c-12.3 0-22.4-10.1-22.4-22.4 0-12.3 10.1-22.4 22.4-22.4H736c12.3 0 22.4 10.1 22.4 22.4 0 12.3-10.1 22.4-22.4 22.4zM288 182.39999999999998c-12.3 0-22.4-10.1-22.4-22.4s10.1-22.4 22.4-22.4h268.8c12.3 0 22.4 10.1 22.4 22.4s-10.1 22.4-22.4 22.4H288zM400 406.4c12.3 0 22.4 10.1 22.4 22.4V585.6H512c12.3 0 22.4 10.1 22.4 22.4s-10.1 22.4-22.4 22.4H288c-12.3 0-22.4-10.1-22.4-22.4s10.1-22.4 22.4-22.4h89.6v-156.8c0-12.3 10.1-22.4 22.4-22.4z"  horiz-adv-x="1024" />
      
      <glyph glyph-name="shenbao" unicode="&#59119;" d="M937.6 652.8c12.4 0 22.4 10 22.4 22.4v112c0 24.6-20.2 44.8-44.8 44.8H108.8C84.2 832 64 811.8 64 787.2v-806.4c0-24.6 20.2-44.8 44.8-44.8h806.4c24.6 0 44.8 20.2 44.8 44.8V496c0 12.4-10 22.4-22.4 22.4-12.4 0-22.4-10-22.4-22.4v-492.8c0-12.4-10-22.4-22.4-22.4H131.2c-12.4 0-22.4 10-22.4 22.4V764.8c0 12.4 10 22.4 22.4 22.4h761.6c12.4 0 22.4-10 22.4-22.4v-89.6c0-12.4 10-22.4 22.4-22.4zM609.3 137.60000000000002c12.3 0 22.4 10.1 22.4 22.4V374.70000000000005l88.5-88.5c8.7-8.7 23-8.7 31.7 0s8.7 23 0 31.7L625.2 444.6v0.1c-1.5 1.5-3.3 2.3-5 3.3-0.8 0.4-1.4 1.1-2.2 1.5-2.8 1.1-5.7 1.7-8.6 1.7-2.9 0-5.9-0.6-8.6-1.8-0.8-0.3-1.3-1-2.1-1.4-1.8-1-3.6-1.9-5.2-3.4v-0.1L466.8 318c-8.7-8.7-8.7-23 0-31.7s23-8.7 31.7 0l88.5 88.5V160c-0.1-12.3 10-22.4 22.3-22.4zM288 204.79999999999995c-12.4 0-22.4-10-22.4-22.4 0-12.4 10-22.4 22.4-22.4h112c12.4 0 22.4 10 22.4 22.4 0 12.4-10 22.4-22.4 22.4H288z m448 402H288c-12.4 0-22.4-10-22.4-22.4 0-12.4 10-22.4 22.4-22.4h448c12.4 0 22.4 10 22.4 22.4 0 12.4-10 22.4-22.4 22.4z m-268.8-178c0 12.4-10 22.4-22.4 22.4H288c-12.4 0-22.4-10-22.4-22.4 0-12.4 10-22.4 22.4-22.4h156.8c12.4 0 22.4 10 22.4 22.4z"  horiz-adv-x="1024" />
      
      <glyph glyph-name="kecheng" unicode="&#59120;" d="M896 661.3c11.8 0 21.3 9.6 21.3 21.3V789.3c0 23.6-19.1 42.7-42.7 42.7H149.3c-23.6 0-42.7-19.1-42.7-42.7v-746.7c0-58.7 48-106.7 106.7-106.7H896c11.8 0 21.3 9.6 21.3 21.3V512c0 11.8-9.6 21.3-21.3 21.3s-21.3-9.6-21.3-21.3v-362.7H213.3c-24.1 0-46.1-8.4-64-22V768c0 11.8 9.6 21.3 21.3 21.3h682.7c11.8 0 21.3-9.6 21.3-21.3v-85.3c0.1-11.8 9.6-21.4 21.4-21.4zM213.3 106.70000000000005h661.3v-128H213.3c-35.3 0-64 28.7-64 64s28.7 64 64 64z m512 512c0 11.8-9.6 21.3-21.3 21.3H320c-11.8 0-21.3-9.6-21.3-21.3 0-11.8 9.6-21.3 21.3-21.3h384c11.8-0.1 21.3 9.5 21.3 21.3zM320 490.7c-11.8 0-21.3-9.6-21.3-21.3 0-11.8 9.6-21.3 21.3-21.3h213.3c11.8 0 21.3 9.6 21.3 21.3 0 11.8-9.6 21.3-21.3 21.3H320z"  horiz-adv-x="1024" />
      
      <glyph glyph-name="tiku" unicode="&#59121;" d="M896 661.3c11.8 0 21.3 9.6 21.3 21.3V789.3c0 23.6-19.1 42.7-42.7 42.7H149.3c-23.6 0-42.7-19.1-42.7-42.7v-810.7c0-23.6 19.1-42.7 42.7-42.7h725.3c23.6 0 42.7 19.1 42.7 42.7V512c0 11.8-9.6 21.3-21.3 21.3s-21.3-9.6-21.3-21.3v-512c0-11.8-9.6-21.3-21.3-21.3H170.7c-11.8 0-21.3 9.6-21.3 21.3V768c0 11.8 9.6 21.3 21.3 21.3h682.7c11.8 0 21.3-9.6 21.3-21.3v-85.3c0-11.8 9.5-21.4 21.3-21.4z m-234.7-42.6c0 11.8-9.6 21.3-21.3 21.3H384c-11.8 0-21.3-9.6-21.3-21.3v-325.9c0-16.4 17.7-26.6 31.9-18.5l117.4 67 117.4-67.1c14.2-8.1 31.9 2.1 31.9 18.5v326zM618.7 320l-101.2 60.7c-3.4 2-7.6 2-11 0L405.3 320V597.3h213.3V320zM384 170.70000000000005c-11.8 0-21.3-9.6-21.3-21.3 0-11.8 9.6-21.3 21.3-21.3h256c11.8 0 21.3 9.6 21.3 21.3 0 11.8-9.6 21.3-21.3 21.3H384z"  horiz-adv-x="1024" />
      
      <glyph glyph-name="jiaowushezhi" unicode="&#59122;" d="M937.6 652.8c12.4 0 22.4 10 22.4 22.4v112c0 24.6-20.2 44.8-44.8 44.8H108.8C84.2 832 64 811.8 64 787.2v-806.4c0-24.6 20.2-44.8 44.8-44.8h806.4c24.6 0 44.8 20.2 44.8 44.8V496c0 12.4-10 22.4-22.4 22.4-12.4 0-22.4-10-22.4-22.4v-492.8c0-12.3-10.1-22.4-22.4-22.4H131.2c-12.3 0-22.4 10.1-22.4 22.4V764.8c0 12.3 10.1 22.4 22.4 22.4h761.6c12.3 0 22.4-10.1 22.4-22.4v-89.6c0-12.4 10-22.4 22.4-22.4zM264.5 185.10000000000002c-1.5-13.3 8.9-25.1 22.4-25.1 11.2 0 20.9 8.3 22.1 19.4 9.7 89.8 85.7 159.8 178.2 159.8s168.5-70 178.2-159.8c0.1-0.6 0.4-1 0.5-1.6 0.3-1.6 0.7-3.1 1.4-4.6 0.6-1.4 1.4-2.5 2.3-3.7 0.7-1 1.4-1.9 2.2-2.8 1.3-1.3 2.7-2.2 4.3-3.2 0.7-0.4 1.2-1.1 1.9-1.4 0.2-0.1 0.5-0.1 0.7-0.2 1.7-0.7 3.6-1 5.5-1.3 1-0.1 1.9-0.5 2.9-0.5 0.2 0 0.3-0.1 0.4-0.1 0.9 0 1.6 0.4 2.5 0.5 2 0.2 4 0.5 5.9 1.3 1.3 0.5 2.3 1.3 3.5 2.1 1.3 0.9 2.7 1.7 3.8 2.8 1.1 1.1 2 2.5 2.8 3.8 0.5 0.8 1.3 1.4 1.7 2.3l94.7 203c5.2 11.2 0.4 24.5-10.8 29.8-11.2 5.2-24.5 0.4-29.8-10.8l-68.6-147.2c-23.5 54.8-67.7 98.4-123 120.4 31.2 24.6 51.4 62.7 51.4 105.6 0 74.2-60.2 134.4-134.4 134.4s-134.4-60.2-134.4-134.4c0-42.9 20.1-80.9 51.4-105.6-75.2-30-130.4-99.5-139.7-182.9z m133 288.5c0 49.5 40.1 89.6 89.6 89.6s89.6-40.1 89.6-89.6c0-49.5-40.1-89.6-89.6-89.6s-89.6 40.1-89.6 89.6z"  horiz-adv-x="1024" />
      
      <glyph glyph-name="zidingyishezhi" unicode="&#59123;" d="M937.6 652.8c12.4 0 22.4 10 22.4 22.4v112c0 24.7-20.1 44.8-44.8 44.8H108.8C84.1 832 64 811.9 64 787.2v-806.4c0-24.7 20.1-44.8 44.8-44.8h806.4c24.7 0 44.8 20.1 44.8 44.8V496c0 12.4-10 22.4-22.4 22.4-12.4 0-22.4-10-22.4-22.4v-492.8c0-12.4-10-22.4-22.4-22.4H131.2c-12.4 0-22.4 10-22.4 22.4V764.8c0 12.4 10 22.4 22.4 22.4h761.6c12.4 0 22.4-10 22.4-22.4v-89.6c0-12.4 10-22.4 22.4-22.4zM512 160c12.4 0 22.4 10 22.4 22.4V361.6h179.2c12.4 0 22.4 10 22.4 22.4 0 12.4-10 22.4-22.4 22.4H534.4V585.6c0 12.4-10 22.4-22.4 22.4-12.4 0-22.4-10-22.4-22.4v-179.2H310.4c-12.4 0-22.4-10-22.4-22.4 0-12.4 10-22.4 22.4-22.4h179.2v-179.2c0-12.4 10-22.4 22.4-22.4z"  horiz-adv-x="1024" />
      
      <glyph glyph-name="chaojitongji" unicode="&#59124;" d="M713.6 70.39999999999998h156.8c12.4 0 22.4 10 22.4 22.4V675.2c0 12.4-10 22.4-22.4 22.4H713.6c-12.4 0-22.4-10-22.4-22.4v-582.4c0-12.4 10-22.4 22.4-22.4zM736 652.8h112v-537.6H736V652.8zM153.6 70.39999999999998h156.8c12.4 0 22.4 10 22.4 22.4V809.6c0 12.4-10 22.4-22.4 22.4H153.6c-12.4 0-22.4-10-22.4-22.4v-716.8c0-12.4 10-22.4 22.4-22.4zM176 787.2h112v-672H176v672z m257.6-716.8h156.8c12.4 0 22.4 10 22.4 22.4v448c0 12.4-10 22.4-22.4 22.4H433.6c-12.4 0-22.4-10-22.4-22.4v-448c0-12.4 10-22.4 22.4-22.4z m22.4 448h112v-403.2H456V518.4z m481.6-537.6H86.4c-12.4 0-22.4-10-22.4-22.4C64-54 74-64 86.4-64h851.2c12.4 0 22.4 10 22.4 22.4 0 12.4-10 22.4-22.4 22.4z"  horiz-adv-x="1024" />
      
      <glyph glyph-name="zhaoshengtongji" unicode="&#59125;" d="M554.7 149.29999999999995c-11.8 0-21.3-9.6-21.3-21.3v-170.7c0-11.8 9.6-21.3 21.3-21.3s21.3 9.6 21.3 21.3V128c0 11.8-9.6 21.3-21.3 21.3zM668.4 192c-11.8 0-21.3-9.6-21.3-21.3v-213.3c0-11.8 9.6-21.3 21.3-21.3 11.8 0 21.3 9.6 21.3 21.3V170.70000000000005c0.1 11.7-9.5 21.3-21.3 21.3zM538.7 830.5c-141.6 15.6-261.4-94.8-261.4-233.2 0-90 50.7-168 125-207.4C231.9 342.1 106.7 185.79999999999995 106.7 0c0-15.5 1.1-30.7 2.9-45.7 1.3-10.5 10.5-18.3 21.1-18.3 12.5 0 22.6 10.8 21.1 23.3-1.6 13.4-2.5 26.9-2.5 40.7 0 200.3 162.4 362.7 362.7 362.7 138.4 0 248.8 119.8 233.2 261.4-11.9 107.3-99.1 194.6-206.5 206.4zM479.5 408c-79.6 13.1-143.8 77.2-156.8 156.8-21.6 131.4 90.4 243.4 221.8 221.8 79.6-13.1 143.8-77.2 156.8-156.8 21.6-131.3-90.4-243.4-221.8-221.8zM896 234.70000000000005c-11.8 0-21.3-9.6-21.3-21.3v-256c0-11.8 9.6-21.3 21.3-21.3 11.8 0 21.3 9.6 21.3 21.3v256c0 11.7-9.5 21.3-21.3 21.3zM782.2 320c-11.8 0-21.3-9.6-21.3-21.3v-341.3c0-11.8 9.6-21.3 21.3-21.3 11.8 0 21.3 9.6 21.3 21.3V298.70000000000005c0.1 11.7-9.5 21.3-21.3 21.3z"  horiz-adv-x="1024" />
      
      <glyph glyph-name="tuiguangtongji" unicode="&#59126;" d="M896 661.3c11.8 0 21.3 9.6 21.3 21.3V789.3c0 23.5-19.2 42.7-42.7 42.7H149.3c-23.5 0-42.7-19.2-42.7-42.7v-810.7c0-23.5 19.2-42.7 42.7-42.7h725.3c23.5 0 42.7 19.2 42.7 42.7V512c0 11.8-9.6 21.3-21.3 21.3s-21.3-9.6-21.3-21.3v-512c0-11.8-9.6-21.3-21.3-21.3H170.7c-11.8 0-21.3 9.6-21.3 21.3V768c0 11.8 9.6 21.3 21.3 21.3h682.7c11.8 0 21.3-9.6 21.3-21.3v-85.3c0-11.8 9.5-21.4 21.3-21.4zM725.3 320c0 11.7-9.6 21.3-21.3 21.3H320c-11.7 0-21.3-9.6-21.3-21.3s9.6-21.3 21.3-21.3h384c11.7 0 21.3 9.6 21.3 21.3zM320 192c-11.7 0-21.3-9.6-21.3-21.3 0-11.7 9.6-21.3 21.3-21.3h213.3c11.7 0 21.3 9.6 21.3 21.3 0 11.7-9.6 21.3-21.3 21.3H320z m405 441c-8.3 8.3-21.8 8.3-30.2 0L561.4 499.5 455.8 605.1c-4.2 4.2-9.6 6.2-15.1 6.2s-11-2.1-15.1-6.2L304.9 484.4c-8.3-8.3-8.3-21.9 0-30.2s21.9-8.3 30.2 0l105.6 105.6 105.6-105.6v-0.1c6.3-6.3 15.4-7.8 23.1-4.7 2.6 1 5 2.6 7.1 4.7v0.1L725 602.8c8.3 8.3 8.3 21.8 0 30.2z"  horiz-adv-x="1024" />
      
      <glyph glyph-name="xuexitongji" unicode="&#59127;" d="M917.3 168.5c0 2.8-0.6 5.6-1.7 8.2-0.2 0.5-0.7 0.9-0.9 1.4-1 1.9-2 3.8-3.6 5.4-1.6 1.6-3.5 2.6-5.5 3.6-0.5 0.3-0.9 0.7-1.4 0.9-2.6 1.1-5.4 1.7-8.2 1.7H768c-11.7 0-21.3-9.6-21.3-21.3s9.6-21.3 21.3-21.3h76.5L684.9-12.5 549.3 123.20000000000005v0.1c-4.2 4.2-9.6 6.2-15.1 6.2s-10.9-2.1-15.1-6.2v-0.1L368.2-27.600000000000023c-8.3-8.3-8.3-21.9 0-30.2s21.9-8.3 30.2 0L534.1 78l135.4-135.4c0.1-0.1 0.1-0.2 0.2-0.3 4.2-4.2 9.7-6.2 15.1-6.2 5.5 0 11 2 15.1 6.2 0.1 0.1 0.1 0.2 0.2 0.3L874.7 117v-76.5c0-11.7 9.6-21.3 21.3-21.3 11.7 0 21.3 9.6 21.3 21.3v128zM512 362.70000000000005c86.3 0 165.5-30.3 227.7-80.6 3.7-3 8.3-4.7 13.1-4.7 20 0 28.9 25.3 13.4 37.9-42.1 34.1-91.2 59.8-144.7 74.8 81.6 43.2 134.8 132.9 123.7 234-11.9 107.3-99.1 194.6-206.5 206.4-141.6 15.6-261.4-94.8-261.4-233.2 0-90 50.7-168 125-207.4-9.9-2.8-19.6-6-29.3-9.5-1.3-0.5-2.6-0.9-3.8-1.4-9.3-3.5-18.5-7.3-27.4-11.5-1.1-0.5-2.1-1-3.2-1.5-36.8-17.5-70.5-40.3-100.2-67.5-2-1.9-4.1-3.7-6.1-5.6-5.7-5.4-11.1-11.1-16.5-16.8-2.8-3-5.6-6.1-8.3-9.2-4.8-5.4-9.4-10.9-13.9-16.6-3.1-3.9-6-7.9-8.9-11.9-3.9-5.4-7.9-10.7-11.6-16.3-3.5-5.4-6.8-11-10-16.5-4-6.7-7.8-13.5-11.4-20.4-4.1-8-8.1-16-11.7-24.3-1.9-4.4-3.5-8.9-5.2-13.3-2.8-7-5.4-14.1-7.8-21.3-1.5-4.7-2.9-9.4-4.3-14.2-2.1-7.3-4-14.8-5.7-22.3-1.1-4.7-2.1-9.4-3-14.1-1.6-8.3-2.8-16.6-3.8-25.1-0.5-4.1-1.2-8.2-1.6-12.3-1.2-12.6-1.9-25.4-1.9-38.3 0-15.5 1.1-30.7 2.9-45.7 1.3-10.5 10.5-18.3 21.1-18.3 12.5 0 22.6 10.8 21.1 23.3-1.6 13.4-2.5 26.9-2.5 40.7 0 200.3 162.4 362.7 362.7 362.7zM322.7 564.8c-21.6 131.4 90.4 243.4 221.8 221.8 79.6-13.1 143.8-77.2 156.8-156.8 21.6-131.4-90.4-243.4-221.8-221.9-79.6 13.2-143.8 77.3-156.8 156.9z"  horiz-adv-x="1024" />
      
      <glyph glyph-name="diqushujutongji" unicode="&#59128;" d="M256 213.29999999999995c0-11.7 9.6-21.3 21.3-21.3h469.3c11.7 0 21.3 9.6 21.3 21.3s-9.6 21.3-21.3 21.3H277.3c-11.7 0.1-21.3-9.5-21.3-21.3z m629.8 417.3c-3.9 5.9-10.7 9.4-17.8 9.4-17.1 0-26.8-18.9-17.4-33.2 50-75.7 75.3-169.1 64.3-268.8-20.7-187.8-173.4-338.6-361.4-357.3-256-25.4-469.4 187.7-444.8 443.5 17.9 185.7 165 337.8 350.1 361.6 111.5 14.3 215.2-17.1 295.9-77.6 3.7-2.7 8.1-4.3 12.6-4.3 20.5 0 29.5 26.3 13.1 38.6-87.2 65.4-199 99.8-319.1 86.6C253.9 806.3 87.5 638.5 66.4 431c-28.9-283.6 207-520.3 490.4-492.9 211.9 20.5 382.6 193.1 401.4 405.1 9.5 106.7-18.7 206.2-72.4 287.4zM341.3 320V490.7c0 11.7-9.6 21.3-21.3 21.3-11.7 0-21.3-9.6-21.3-21.3V320c0-11.7 9.6-21.3 21.3-21.3 11.7 0 21.3 9.6 21.3 21.3z m128 0V618.7c0 11.7-9.6 21.3-21.3 21.3-11.7 0-21.3-9.6-21.3-21.3V320c0-11.7 9.6-21.3 21.3-21.3 11.7 0 21.3 9.6 21.3 21.3z m256 0v85.3c0 11.7-9.6 21.3-21.3 21.3s-21.3-9.6-21.3-21.3V320c0-11.7 9.6-21.3 21.3-21.3s21.3 9.6 21.3 21.3z m-128 0V533.3c0 11.7-9.6 21.3-21.3 21.3-11.7 0-21.3-9.6-21.3-21.3V320c0-11.7 9.6-21.3 21.3-21.3 11.7 0 21.3 9.6 21.3 21.3z"  horiz-adv-x="1024" />
      
      <glyph glyph-name="shujudaoru" unicode="&#59129;" d="M496.2 121.79999999999995c2.1-2.1 4.5-3.7 7.3-4.8 2.7-1.1 5.5-1.7 8.4-1.7h0.4c2.9 0 5.7 0.6 8.4 1.7s5.2 2.8 7.3 4.8l221.7 221.7c8.7 8.7 8.7 22.9 0 31.7-8.7 8.7-22.9 8.7-31.7 0L534.4 191.70000000000005V809.6c0 12.4-10 22.4-22.4 22.4-12.4 0-22.4-10-22.4-22.4v-617.9L306.1 375.20000000000005c-8.7 8.7-22.9 8.7-31.7 0-8.7-8.7-8.7-22.9 0-31.7l221.8-221.7z m441.4 217.4c-12.4 0-22.4-10-22.4-22.4v-336H108.8v336c0 12.4-10 22.4-22.4 22.4S64 329.20000000000005 64 316.79999999999995v-358.4C64-54 74-64 86.4-64h851.2c12.4 0 22.4 10 22.4 22.4V316.79999999999995c0 12.4-10 22.4-22.4 22.4z"  horiz-adv-x="1024" />
      
      <glyph glyph-name="chengkaoguanli" unicode="&#59131;" d="M533.3 448H298.7c-11.8 0-21.3-9.6-21.3-21.3 0-11.8 9.6-21.3 21.3-21.3h234.7c11.8 0 21.3 9.6 21.3 21.3 0 11.7-9.6 21.3-21.4 21.3z m245.4-85.3C702.1 362.70000000000005 640 300.6 640 224c0-39.3 16.4-74.9 42.7-100.1v-166.6c0-17.1 19-27.1 33.1-17.7l62.9 41.8 62.9-41.8c14.1-9.4 33.1 0.6 33.1 17.7V123.89999999999998c26.2 25.2 42.7 60.8 42.7 100.1-0.1 76.6-62.1 138.7-138.7 138.7zM832-10.700000000000045l-41.6 27.3c-7.3 4.5-16.2 4.5-23.5 0l-41.6-27.3V96c16.4-6.8 34.3-10.7 53.3-10.7s36.9 3.8 53.3 10.7v-106.7z m28.2 184.1c-13-21.1-33.9-36.7-58.7-42.7-7.3-1.9-14.9-2.8-22.8-2.8s-15.6 0.9-22.8 2.8c-24.7 6-45.7 21.5-58.7 42.7-9.2 14.7-14.5 32-14.5 50.6 0 53.1 42.9 96 96 96s96-42.9 96-96c0-18.6-5.4-35.8-14.5-50.6zM874.7 832H149.3c-23.5 0-42.7-19.2-42.7-42.7v-810.7c0-23.5 19.2-42.7 42.7-42.7h448v42.7H170.7c-11.8 0-21.3 9.6-21.3 21.3V768c0 11.8 9.6 21.3 21.3 21.3h682.7c11.8 0 21.3-9.6 21.3-21.3v-362.7h42.7v384c-0.1 23.5-19.3 42.7-42.7 42.7zM533.3 298.70000000000005H298.7c-11.8 0-21.3-9.6-21.3-21.3 0-11.8 9.6-21.3 21.3-21.3h234.7c11.8 0 21.3 9.6 21.3 21.3 0 11.7-9.6 21.3-21.4 21.3zM746.7 576c0 11.7-9.6 21.3-21.3 21.3H298.7c-11.7 0-21.3-9.6-21.3-21.3s9.6-21.3 21.3-21.3h426.7c11.7 0 21.3 9.6 21.3 21.3z"  horiz-adv-x="1024" />
      
      <glyph glyph-name="yuanchengguanli" unicode="&#59134;" d="M853.3 21.299999999999955H170.7c-11.7 0-21.3-9.6-21.3-21.3s9.6-21.3 21.3-21.3h682.7c11.7 0 21.3 9.6 21.3 21.3s-9.6 21.3-21.4 21.3zM726.4 552.5c0 11.7-9.6 21.3-21.3 21.3H534.4c-2.8 0-5.6-0.6-8.2-1.7-0.5-0.2-0.9-0.7-1.4-0.9-1.9-1-3.8-2-5.4-3.6-1.6-1.6-2.6-3.5-3.6-5.5-0.3-0.5-0.7-0.9-0.9-1.4-1.1-2.6-1.7-5.4-1.7-8.2v-170.7c0-11.7 9.6-21.3 21.3-21.3 11.7 0 21.3 9.6 21.3 21.3V501l174.7-174.7c8.3-8.3 21.9-8.3 30.2 0s8.3 21.9 0 30.2L585.9 531.1h119.2c11.7 0 21.3 9.6 21.3 21.4z m212.3 66.2c11.8 0 21.3 9.6 21.3 21.3V746.7c0 23.6-19.1 42.7-42.7 42.7H106.7c-23.6 0-42.7-19.1-42.7-42.7V192c0-23.6 19.1-42.7 42.7-42.7h810.7c23.6 0 42.7 19.1 42.7 42.7V469.3c0 11.8-9.6 21.3-21.3 21.3-11.8 0-21.3-9.6-21.3-21.3v-256c0-11.8-9.6-21.3-21.3-21.3H128c-11.8 0-21.3 9.6-21.3 21.3v512c0 11.8 9.6 21.3 21.3 21.3h768c11.8 0 21.3-9.6 21.3-21.3V640c0-11.8 9.6-21.3 21.4-21.3z"  horiz-adv-x="1024" />
      
      <glyph glyph-name="shujiguanli" unicode="&#59135;" d="M896 661.3c11.8 0 21.3 9.6 21.3 21.3V789.3c0 23.6-19.1 42.7-42.7 42.7H149.3c-23.6 0-42.7-19.1-42.7-42.7v-704h0.5c-0.3-3.5-0.5-7.1-0.5-10.7 0-76.6 62.1-138.7 138.7-138.7H896c11.8 0 21.3 9.6 21.3 21.3 0 11.8-9.6 21.3-21.3 21.3H249.5c-50.1 0-94.9 36.7-99.7 86.6-5.5 57.3 39.4 105.4 95.5 105.4H896c11.8 0 21.3 9.6 21.3 21.3V512c0 11.8-9.6 21.3-21.3 21.3s-21.3-9.6-21.3-21.3v-298.7H245.3c-37.3 0-71.1-14.8-96-38.8V768c0 11.8 9.6 21.3 21.3 21.3h682.7c11.8 0 21.3-9.6 21.3-21.3v-85.3c0.1-11.8 9.6-21.4 21.4-21.4z m0-565.3H256c-11.8 0-21.3-9.6-21.3-21.3 0-11.8 9.6-21.3 21.3-21.3h640c11.8 0 21.3 9.6 21.3 21.3 0 11.7-9.5 21.3-21.3 21.3z"  horiz-adv-x="1024" />
      
      <glyph glyph-name="guochengxingkaohe" unicode="&#59136;" d="M405.3 576h-192c-11.7 0-21.3-9.6-21.3-21.3 0-11.7 9.6-21.3 21.3-21.3h192c11.7 0 21.3 9.6 21.3 21.3 0.1 11.7-9.5 21.3-21.3 21.3z m533.4 0c11.8 0 21.3 9.6 21.3 21.3V721.8c0 7.8-4.2 15.2-11.2 18.8-10.1 5.3-20.6 10.1-31.5 14.4-53.3 22-115.2 34.3-181.3 34.3-84.7 0-162.3-20.7-224-54.8-61.7 34.1-139.3 54.8-224 54.8-66.1 0-128-12.4-181.3-34.3-10.9-4.3-21.4-9.1-31.5-14.4-7-3.6-11.2-11-11.2-18.8v-712.6c0-16.1 16.9-26 31.3-18.8 18.7 9.4 39 17.5 60.4 23.9 40.3 12.4 85.1 19.2 132.3 19.2 46.1 0 90.5-6.6 131.4-19.2 25.4-7.7 49.5-17.9 71.9-30.3 6.4-3.6 13.7-5.3 20.7-5.3s14.3 1.7 20.7 5.3c22.4 12.4 46.5 22.6 71.9 30.3 41 12.6 85.3 19.2 131.4 19.2 47.1 0 91.9-6.8 132.3-19.2 21.5-6.4 41.8-14.5 60.4-23.9 14.4-7.3 31.3 2.7 31.3 18.8V426.7c0 11.8-9.6 21.3-21.3 21.3-11.8 0-21.3-9.6-21.3-21.3v-384.9c-53.3 22-115.2 34.3-181.3 34.3-84.7 0-162.3-20.7-224-54.8-61.7 34.1-139.3 54.8-224 54.8-66.1 0-128-12.4-181.3-34.3V708.9c51.6 23.9 113.9 37.8 181.3 37.8 74.7 0 144.9-17.1 203.3-49.5 6.4-3.6 13.7-5.3 20.7-5.3s14.3 1.7 20.7 5.3c58.5 32.4 128.6 49.5 203.3 49.5 67.4 0 129.7-13.9 181.3-37.8v-111.6c-0.1-11.7 9.5-21.3 21.3-21.3z m-341.4 21.3c-11.8 0-21.3-9.6-21.3-21.3v-341.3c0-15.9 16.7-26.2 30.9-19.1l97.1 48.6 97.1-48.6c14.2-7.1 30.9 3.2 30.9 19.1V576c0 11.8-9.6 21.3-21.3 21.3H597.3z m192-333.1l-75.8 37.9c-6 3-13.1 3-19.1 0l-75.8-37.9V554.7h170.7v-290.5z m-384 13.1h-192c-11.7 0-21.3-9.6-21.3-21.3s9.6-21.3 21.3-21.3h192c11.7 0 21.3 9.6 21.3 21.3s-9.5 21.3-21.3 21.3z m0 149.4h-192c-11.7 0-21.3-9.6-21.3-21.3 0-11.7 9.6-21.3 21.3-21.3h192c11.7 0 21.3 9.6 21.3 21.3 0.1 11.7-9.5 21.3-21.3 21.3z"  horiz-adv-x="1024" />
      
      <glyph glyph-name="xuefenrending" unicode="&#59137;" d="M941.8 500.7L658 541.9l-21.5 43.5c-3.6 7.3-11 11.9-19.1 11.9-15.8 0-26.1-16.6-19.1-30.8l21.5-43.5c6.2-12.6 18.2-21.3 32.1-23.3l240.8-35-174.2-169.6c-10.1-9.8-14.7-23.9-12.3-37.8l41.1-239.6-215.5 113.2c-6.2 3.3-13 4.9-19.8 4.9-6.8 0-13.6-1.6-19.8-4.9L276.7 17.700000000000045l41.1 239.6c2.4 13.9-2.2 28-12.3 37.8L131.3 464.8l240.8 35c13.9 2 25.9 10.7 32.1 23.3l107.8 218 33.5-67.9c3.6-7.3 11-11.9 19.1-11.9 15.8 0 26.1 16.6 19.1 30.8L531.1 798.8c-3.9 7.9-11.5 11.8-19.1 11.8-7.6 0-15.2-3.9-19.1-11.8L366 541.9 82.2 500.7c-17.5-2.5-24.4-24-11.8-36.3l205.3-199.9-48.5-282.3c-2.4-13.7 8.6-24.9 21-24.9 3.3 0 6.6 0.8 9.9 2.5L512 93.10000000000002l253.8-133.3c3.3-1.7 6.6-2.5 9.9-2.5 12.4 0 23.3 11.2 21 24.9l-48.5 282.3 205.3 199.9c12.7 12.4 5.7 33.8-11.7 36.3zM579.7 302.29999999999995c8.3-8.3 21.9-8.3 30.2 0l90.5 90.5c8.3 8.3 8.3 21.9 0 30.2s-21.9 8.3-30.2 0l-90.5-90.5c-8.3-8.3-8.3-21.9 0-30.2z"  horiz-adv-x="1024" />
      
      <glyph glyph-name="kechengdingdan" unicode="&#59138;" d="M725.3 405.3H448c-11.8 0-21.3-9.6-21.3-21.3 0-11.8 9.6-21.3 21.3-21.3h277.3c11.8 0 21.3 9.6 21.3 21.3 0.1 11.8-9.5 21.3-21.3 21.3z m0 170.7H448c-11.8 0-21.3-9.6-21.3-21.3 0-11.8 9.6-21.3 21.3-21.3h277.3c11.8 0 21.3 9.6 21.3 21.3 0.1 11.7-9.5 21.3-21.3 21.3zM896 661.3c11.8 0 21.3 9.6 21.3 21.3V789.3c0 23.6-19.1 42.7-42.7 42.7H149.3c-23.6 0-42.7-19.1-42.7-42.7v-810.7c0-23.6 19.1-42.7 42.7-42.7H704c117.8 0 213.3 95.5 213.3 213.3V512c0 11.8-9.6 21.3-21.3 21.3s-21.3-9.6-21.3-21.3v-341.3c0-106-86-192-192-192h-512c-11.8 0-21.3 9.6-21.3 21.3V768c0 11.8 9.6 21.3 21.3 21.3h682.7c11.8 0 21.3-9.6 21.3-21.3v-85.3c0-11.8 9.5-21.4 21.3-21.4zM725.3 234.70000000000005H448c-11.8 0-21.3-9.6-21.3-21.3 0-11.8 9.6-21.3 21.3-21.3h277.3c11.8 0 21.3 9.6 21.3 21.3 0.1 11.7-9.5 21.3-21.3 21.3zM341.3 576h-42.7c-11.8 0-21.3-9.6-21.3-21.3 0-11.8 9.6-21.3 21.3-21.3h42.7c11.8 0 21.3 9.6 21.3 21.3 0.1 11.7-9.5 21.3-21.3 21.3z m0-341.3h-42.7c-11.8 0-21.3-9.6-21.3-21.3 0-11.8 9.6-21.3 21.3-21.3h42.7c11.8 0 21.3 9.6 21.3 21.3 0.1 11.7-9.5 21.3-21.3 21.3z m0 170.6h-42.7c-11.8 0-21.3-9.6-21.3-21.3 0-11.8 9.6-21.3 21.3-21.3h42.7c11.8 0 21.3 9.6 21.3 21.3 0.1 11.8-9.5 21.3-21.3 21.3z"  horiz-adv-x="1024" />
      
      <glyph glyph-name="wentifankui" unicode="&#59139;" d="M704 384H320c-11.8 0-21.3-9.6-21.3-21.3 0-11.8 9.6-21.3 21.3-21.3h384c11.8 0 21.3 9.6 21.3 21.3 0 11.7-9.5 21.3-21.3 21.3z m0-170.7H320c-11.8 0-21.3-9.6-21.3-21.3 0-11.8 9.6-21.3 21.3-21.3h384c11.8 0 21.3 9.6 21.3 21.3 0 11.8-9.5 21.3-21.3 21.3zM565.2 480.9l1-1c8-8 21.1-8 29.1 0l315.9 315.9c8 8 8 21.1 0 29.1l-1 1c-8 8-21.1 8-29.1 0L565.2 510.1c-8-8.1-8-21.1 0-29.2zM896 576c-11.8 0-21.3-9.6-21.3-21.3V0c0-11.8-9.6-21.3-21.3-21.3H170.7c-11.8 0-21.3 9.6-21.3 21.3V768c0 11.8 9.6 21.3 21.3 21.3H640c11.8 0 21.3 9.6 21.3 21.3 0 11.8-9.6 21.3-21.3 21.3H149.3c-23.6 0-42.7-19.1-42.7-42.7v-810.7c0-23.6 19.1-42.7 42.7-42.7h725.3c23.6 0 42.7 19.1 42.7 42.7v576c0 11.9-9.5 21.5-21.3 21.5z m-576-64h128c11.8 0 21.3 9.6 21.3 21.3 0 11.8-9.6 21.3-21.3 21.3H320c-11.8 0-21.3-9.6-21.3-21.3 0-11.7 9.5-21.3 21.3-21.3z"  horiz-adv-x="1024" />
      
      <glyph glyph-name="zichan" unicode="&#59140;" d="M576 384c0-47.1 38.2-85.3 85.3-85.3s85.3 38.2 85.3 85.3c0 47.1-38.2 85.3-85.3 85.3S576 431.1 576 384z m128 0c0-23.6-19.1-42.7-42.7-42.7s-42.7 19.1-42.7 42.7 19.1 42.7 42.7 42.7S704 407.6 704 384z m256 170.7v192c0 23.6-19.1 42.7-42.7 42.7H106.7c-23.6 0-42.7-19.1-42.7-42.7v-725.3c0-23.6 19.1-42.7 42.7-42.7h810.7c23.6 0 42.7 19.1 42.7 42.7V384c0 11.8-9.6 21.3-21.3 21.3-11.8 0-21.3-9.6-21.3-21.3v-149.3H490.7V533.3h448c11.7 0 21.3 9.6 21.3 21.4zM917.3 576h-448c-11.8 0-21.3-9.6-21.3-21.3v-341.3c0-11.8 9.6-21.3 21.3-21.3h448v-149.3c0-11.8-9.6-21.3-21.3-21.3H128c-11.8 0-21.3 9.6-21.3 21.3V725.3c0 11.8 9.6 21.3 21.3 21.3h768c11.8 0 21.3-9.6 21.3-21.3V576z"  horiz-adv-x="1024" />
      
      <glyph glyph-name="KPIguanli" unicode="&#59141;" d="M937.6 652.7c12.4 0 22.4 10 22.4 22.4V787.2c0 24.7-20.1 44.8-44.8 44.8H108.8C84.1 832 64 811.9 64 787.2v-806.4c0-24.7 20.1-44.8 44.8-44.8h806.4c24.7 0 44.8 20.1 44.8 44.8V495.9c0 12.4-10 22.4-22.4 22.4-12.4 0-22.4-10-22.4-22.4v-492.7c0-12.4-10-22.4-22.4-22.4H131.2c-12.4 0-22.4 10-22.4 22.4V764.8c0 12.4 10 22.4 22.4 22.4h761.6c12.4 0 22.4-10 22.4-22.4v-89.7c0-12.4 10-22.4 22.4-22.4zM288 204.79999999999995c-12.3 0-22.4-10.1-22.4-22.4 0-12.3 10.1-22.4 22.4-22.4h448c12.3 0 22.4 10.1 22.4 22.4 0 12.3-10.1 22.4-22.4 22.4H288zM768.1 412.7V585.6c0 2.9-0.6 5.9-1.7 8.6-0.5 1.3-1.5 2.3-2.3 3.5-0.8 1.3-1.4 2.6-2.5 3.7s-2.5 1.6-3.7 2.5c-1.2 0.8-2.2 1.8-3.5 2.3-2.8 1.1-5.7 1.7-8.6 1.7H611.3c-12.3 0-22.4-10.1-22.4-22.4s10.1-22.4 22.4-22.4h80.3L531.8 403.4 420.9 514.3c-4.4 4.4-10.1 6.5-15.9 6.5-5.8 0-11.5-2.2-15.9-6.5L262.5 387.6c-8.7-8.7-8.7-23 0-31.7s23-8.7 31.7 0L405 466.8l111-110.9c4.4-4.4 10.1-6.5 15.8-6.5 5.7 0 11.5 2.2 15.8 6.5l175.6 175.6v-118.8c0-12.4 10-22.4 22.4-22.4 12.4 0 22.5 10 22.5 22.4z"  horiz-adv-x="1024" />
      
      <glyph glyph-name="xiangmuguanli" unicode="&#59142;" d="M937.6 518.4c12.4 0 22.4 10 22.4 22.4v112c0 24.7-20.1 44.8-44.8 44.8H512L413.4 815.9A44.77 44.77 0 0 1 379 832H108.8C84.1 832 64 811.9 64 787.2v-806.4c0-24.7 20.1-44.8 44.8-44.8h806.4c24.7 0 44.8 20.1 44.8 44.8V361.6c0 12.4-10 22.4-22.4 22.4-12.4 0-22.4-10-22.4-22.4v-358.4c0-12.4-10-22.4-22.4-22.4H131.2c-12.4 0-22.4 10-22.4 22.4V764.8c0 12.4 10 22.4 22.4 22.4h235.9c6.6 0 13-3 17.2-8.1l98.6-118.3c4.3-5.1 10.6-8.1 17.2-8.1h392.7c12.4 0 22.4-10 22.4-22.4v-89.6c0-12.3 10-22.3 22.4-22.3zM758.4 428.8H444.8c-12.3 0-22.4-10.1-22.4-22.4s10.1-22.4 22.4-22.4h313.6c12.3 0 22.4 10.1 22.4 22.4s-10.1 22.4-22.4 22.4zM332.8 428.8h-67.2c-12.3 0-22.4-10.1-22.4-22.4s10.1-22.4 22.4-22.4h67.2c12.3 0 22.4 10.1 22.4 22.4s-10.1 22.4-22.4 22.4zM758.4 249.60000000000002H444.8c-12.3 0-22.4-10.1-22.4-22.4 0-12.3 10.1-22.4 22.4-22.4h313.6c12.3 0 22.4 10.1 22.4 22.4 0 12.3-10.1 22.4-22.4 22.4zM332.8 249.60000000000002h-67.2c-12.3 0-22.4-10.1-22.4-22.4 0-12.3 10.1-22.4 22.4-22.4h67.2c12.3 0 22.4 10.1 22.4 22.4 0 12.3-10.1 22.4-22.4 22.4z"  horiz-adv-x="1024" />
      
      <glyph glyph-name="weixingongzhonghao" unicode="&#59143;" d="M947 415.4l-62.9 62.9c-4.2 4.2-9.8 6.5-15.7 6.5-19.8 0-29.7-23.9-15.7-37.9l47.2-47.2c8.7-8.7 8.7-22.7 0-31.4L797.4 265.79999999999995v-145c0-12.3-9.9-22.2-22.2-22.2h-145L527.7-3.8999999999999773c-8.7-8.7-22.7-8.7-31.4 0l-89.5 89.5-13 13h-145c-12.3 0-22.2 9.9-22.2 22.2v145L124.1 368.29999999999995c-8.7 8.7-8.7 22.7 0 31.4l102.5 102.5v145c0 12.3 9.9 22.2 22.2 22.2h145l102.5 102.5c8.7 8.7 22.7 8.7 31.4 0l89.5-89.5 13-13h145c12.3 0 22.2-9.9 22.2-22.2V619c0-12.3 9.9-22.2 22.2-22.2 12.3 0 22.2 9.9 22.2 22.2v50.4c0 24.5-19.9 44.4-44.4 44.4H648.6L543.4 819c-17.3 17.3-45.5 17.3-62.8 0L375.4 713.8H226.6c-24.5 0-44.4-19.9-44.4-44.4v-148.8L77 415.4c-17.3-17.3-17.3-45.5 0-62.8l105.2-105.2v-148.8c0-24.5 19.9-44.4 44.4-44.4h148.8L480.6-51c17.3-17.3 45.5-17.3 62.8 0l105.2 105.2h148.8c24.5 0 44.4 19.9 44.4 44.4V247.39999999999998L947 352.6c17.3 17.3 17.3 45.5 0 62.8z m-276.6 95.3L464.5 304.79999999999995 353.6 415.7c-8.7 8.7-23 8.7-31.7 0s-8.7-23 0-31.7l126.7-126.7c4.4-4.4 10.1-6.5 15.8-6.5 5.7 0 11.5 2.2 15.8 6.5L702.1 479c8.7 8.7 8.7 23 0 31.7s-23 8.7-31.7 0z"  horiz-adv-x="1024" />
      
      <glyph glyph-name="anquanshezhi" unicode="&#59144;" d="M699.2 541.1L473 314.9 367.4 420.4c-8.3 8.3-21.8 8.3-30.2 0-8.3-8.3-8.3-21.8 0-30.2l120.5-120.5c0.1-0.1 0.1-0.2 0.2-0.2 4.2-4.2 9.7-6.3 15.1-6.2 5.5 0 10.9 2.1 15.1 6.2 0.1 0.1 0.1 0.2 0.2 0.2l241.1 241.1c8.3 8.3 8.3 21.8 0 30.2-8.3 8.4-21.8 8.4-30.2 0.1zM896 448c-11.8 0-21.3-9.6-21.3-21.3v-97.8c0.9-175.6-290-319.3-362.7-347.8-72.7 28.4-363.6 172.2-362.7 348V702.8c175.6 12.8 238.2 35.8 362.5 86.5H512.1c124.3-50.7 187-73.7 362.6-86.5v-105.5c0-11.8 9.6-21.3 21.3-21.3 11.8 0 21.3 9.6 21.3 21.3V722.7c0 11.3-8.9 20.5-20.1 21.3-188.6 12.4-247 35.1-369 84.8C523 831 517.5 832 512 832s-11-1-16.2-3.1c-122-49.7-180.4-72.4-369-84.8-11.2-0.7-20.1-10-20.1-21.3v-393.7C105.5 98.20000000000005 503.6-64 511.9-64c0.1 0 0.1 0 0.1 0.1 0 0 0-0.1 0.1-0.1 8.3 0 406.4 162.2 405.2 393.1v97.6c0 11.7-9.5 21.3-21.3 21.3z"  horiz-adv-x="1024" />
      
      <glyph glyph-name="fuwuzhongxin" unicode="&#59145;" d="M880.7 711.9c-85.4 83.3-213.6 99.3-315.3 48.3l-0.6-0.3c-0.8-0.4-1.6-1-2.5-1.4-23.1-12-44.2-27.4-62.6-45.8l-4.6-4.6-13.4-13.4-150.3-150.4c-8.3-8.3-8.3-21.9 0-30.2s21.9-8.3 30.2 0l180.7 180.8c90.2 73.6 225.1 67.9 308.5-13.4 43-41.8 66.5-97.3 66.5-156.5 0-52.8-19.3-103.8-54.9-144.2-2.9-3.2-5.9-6.5-9.1-9.7l-2.4-2.4L512 38.10000000000002 173 368.70000000000005c-4.5 4.5-7.8 8.1-10.4 11.3l-0.8 0.8-0.5 0.8c-77.2 87.2-72.9 215.3 9.7 297.8l2.1 2.1c43 42.1 100.6 65.3 161.9 65.3 11.1 0 22.2-0.9 33.1-2.5 6.7-1 13.5 1.1 18.3 5.9 12.1 12.1 5.8 33.5-11.2 36.1-13.3 2-26.8 3-40.2 3-69.2 0.2-138.8-25.6-191.7-77.4l-2.4-2.4C42.4 611 38.6 456 129.2 353.29999999999995c4.4-5.3 9.1-10.3 14-15.2L512-21.299999999999955l368.7 359.4 2.9 2.9c4.1 4.1 7.7 8 11.3 12.2 43.4 49.2 65.2 110.7 65.2 172-0.1 67.5-26.5 135.3-79.4 186.7zM783.1 515l1.6-1.6c12-12 33.2-5.8 35.8 10.9 6 38.9-6 79.9-35.9 109.8-20.5 20.5-46.1 32.4-72.7 36-20 2.7-31.5-22.4-17.2-36.6 3.4-3.4 7.9-5.3 12.6-6 17.2-2.5 33.8-10.3 47.1-23.5 19.8-19.8 27.5-46.8 23.7-72.5-0.9-6.1 0.7-12.2 5-16.5z"  horiz-adv-x="1024" />
      
      <glyph glyph-name="qiyefuwu" unicode="&#59146;" d="M263.1 462.5c-8.3 8.3-21.9 8.3-30.2 0s-8.3-21.9 0-30.2l120.7-120.7c8.3-8.3 21.9-8.3 30.2 0s8.3 21.9 0 30.2L263.1 462.5zM947.8 490.3l-118.2 118c-8.2 8.1-21.4 8.1-29.5 0-8.2-8.1-8.2-21.4 0-29.5l103.4-103.3c8.2-8.1 8.2-21.4 0-29.5L800 342.79999999999995l-14.8 14.8-14.8 14.8-14.7 14.6-132.9 132.8 14.8 14.8c8.2 8.1 8.2 21.4 0 29.5-8.2 8.1-21.4 8.1-29.5 0l-29.5-29.5c-32.6-32.6-85.5-32.6-118.2 0l44.3 44.3 14.8 14.8 14.8 14.8 7.4 7.4 7.4 7.4 29.5 29.5 59.1 59c8.2 8.1 21.4 8.1 29.5 0l29.5-29.5c8.2-8.1 21.4-8.1 29.5 0 8.2 8.1 8.2 21.4 0 29.5l-44.3 44.3c-16.3 16.3-42.8 16.3-59.1 0L548.9 682l-44.3-44.3L401.2 741c-16.3 16.3-42.8 16.3-59.1 0L76.2 475.5c-16.3-16.3-16.3-42.7 0-59L475 18.200000000000045c24.4-24.3 64.3-24.3 88.6 0 11.2 11.2 17.4 26 18.2 40.9 14.9 0.7 29.7 6.9 40.9 18.1 11.3 11.3 17.2 26 18 40.9h0.2c14.9 0.7 29.7 6.9 40.9 18.1 11.3 11.3 17.2 26 18 40.9h0.2c14.9 0.7 29.7 6.9 40.9 18.1 11.3 11.3 17.2 26 18 40.9h0.2c14.9 0.7 29.7 6.9 40.9 18.1 13 13 18.8 30.4 18 47.5l129.7 129.6c16.4 16.3 16.4 42.7 0.1 59zM770.5 283.79999999999995c-8.1-8.1-21.4-8.1-29.5 0l-14.8 14.8-14.8 14.8-14.8 14.6c-8.1 8.1-21.4 8.1-29.5 0-8.1-8.1-8.1-21.4 0-29.5l14.8-14.8 14.8-14.8 14.8-14.8c8.1-8.1 8.1-21.4 0-29.5-8.1-8.1-21.4-8.1-29.5 0l-14.8 14.8-14.8 14.8-14.8 14.8c-8.1 8.1-21.4 8.1-29.5 0-8.1-8.1-8.1-21.4 0-29.5l14.8-14.8 14.8-14.8 14.8-14.8c8.1-8.1 8.1-21.4 0-29.5-8.1-8.1-21.4-8.1-29.5 0l-15 14.9-14.8 14.8-14.7 14.7c-8.1 8.1-21.4 8.1-29.5 0-8.1-8.1-8.1-21.4 0-29.5l14.8-14.8 14.8-14.8 14.8-14.8c8.1-8.1 8.1-21.4 0-29.5-8.1-8.1-21.4-8.1-29.5 0l-14.8 14.8-14.8 14.8-14.9 14.8c-8.1 8.1-21.4 8.1-29.5 0-8.1-8.1-8.1-21.4 0-29.5l29.5-29.5 14.8-14.8c8.1-8.1 8.1-21.4 0-29.5-8.1-8.1-21.4-8.1-29.5 0L120.6 431.3c-8.2 8.1-8.2 21.4 0 29.5l236.3 236c8.2 8.1 21.4 8.1 29.5 0l88.6-88.5-44.2-44.3c-16.5-16.5-16-43.2 0.6-59.6 44-43.4 112.1-47.5 160.9-12.6 0.4-0.5 0.6-1.1 1-1.5l132.9-132.8 14.8-14.8 14.8-14.8 14.8-14.8c8-7.9 8-21.2-0.1-29.3z"  horiz-adv-x="1024" />
      
      <glyph glyph-name="wangkefuwu" unicode="&#59147;" d="M435.1 579.6c-6.2 3.9-13.3 6-20.4 6-7.3 0-14.5-2.2-20.5-6.9-10.1-7.9-16.7-20.1-16.7-33.6v-322.7c0-12 5.1-22.9 13.4-30.8 6.5-6.2 15.1-9.3 23.7-9.3 7.3 0 14.7 2.2 21.1 6.5L695.3 364c8.4 5.7 13.4 15 13.4 24.9 0 10.2-5.3 19.8-14.1 25.4L435.1 579.6z m-12.7-345.7V534.6l229.2-146.1-229.2-154.6zM937.6 652.8c12.4 0 22.4 10 22.4 22.4v112c0 24.6-20.2 44.8-44.8 44.8H108.8C84.2 832 64 811.8 64 787.2v-806.4c0-24.6 20.2-44.8 44.8-44.8h806.4c24.6 0 44.8 20.2 44.8 44.8V496c0 12.4-10 22.4-22.4 22.4-12.4 0-22.4-10-22.4-22.4v-492.8c0-12.4-10-22.4-22.4-22.4H131.2c-12.4 0-22.4 10-22.4 22.4V764.8c0 12.4 10 22.4 22.4 22.4h761.6c12.4 0 22.4-10 22.4-22.4v-89.6c0-12.4 10-22.4 22.4-22.4z"  horiz-adv-x="1024" />
      
      <glyph glyph-name="shoufeiguanli" unicode="&#59148;" d="M896 661.3c11.8 0 21.3 9.6 21.3 21.3V789.3c0 23.5-19.2 42.7-42.7 42.7H149.3c-23.5 0-42.7-19.2-42.7-42.7v-810.7c0-23.5 19.2-42.7 42.7-42.7h725.3c23.5 0 42.7 19.2 42.7 42.7V512c0 11.8-9.6 21.3-21.3 21.3s-21.3-9.6-21.3-21.3v-512c0-11.8-9.6-21.3-21.3-21.3H170.7c-11.8 0-21.3 9.6-21.3 21.3V768c0 11.8 9.6 21.3 21.3 21.3h682.7c11.8 0 21.3-9.6 21.3-21.3v-85.3c0-11.8 9.5-21.4 21.3-21.4z m-236.5 21.4c-7.8 0-14.7-4.5-18.7-11.3C615 627.1 567 597.3 512 597.3s-103 29.8-128.8 74.1c-4 6.8-10.9 11.3-18.7 11.3-16.4 0-26.6-17.9-18.4-32.1 33.2-57.3 94.9-95.9 165.9-95.9s132.8 38.6 165.9 95.9c8.3 14.2-2 32.1-18.4 32.1z m-5.3-227.6c-8.3 8.3-21.9 8.3-30.2 0L512 343 399.9 455.1c-8.3 8.3-21.9 8.3-30.2 0s-8.3-21.9 0-30.2l83.6-83.6h-58.7c-11.7 0-21.3-9.6-21.3-21.3s9.6-21.3 21.3-21.3h96v-64h-96c-11.7 0-21.3-9.6-21.3-21.3 0-11.7 9.6-21.3 21.3-21.3h96v-85.3c0-11.7 9.6-21.3 21.3-21.3 11.7 0 21.3 9.6 21.3 21.3V192h96c11.7 0 21.3 9.6 21.3 21.3 0 11.7-9.6 21.3-21.3 21.3h-96v64h96c11.7 0 21.3 9.6 21.3 21.3s-9.6 21.3-21.3 21.3h-58.7l83.6 83.6c8.4 8.4 8.4 22 0.1 30.3z"  horiz-adv-x="1024" />
      
      <glyph glyph-name="quanxianshezhi" unicode="&#59149;" d="M512 192c11.7 0 21.3 9.6 21.3 21.3V364.6C593.8 374.79999999999995 640 427.3 640 490.7c0 70.7-57.3 128-128 128s-128-57.3-128-128c0-63.4 46.2-115.9 106.7-126.1v-151.3c0-11.7 9.6-21.3 21.3-21.3z m-85.3 298.7c0 47.1 38.2 85.3 85.3 85.3s85.3-38.2 85.3-85.3c0-47.1-38.2-85.3-85.3-85.3s-85.3 38.1-85.3 85.3zM896 448c-11.8 0-21.3-9.6-21.3-21.3v-97.8c0.9-175.6-290-319.3-362.7-347.8-72.7 28.4-363.6 172.2-362.7 348V702.8c175.6 12.8 238.2 35.8 362.5 86.5H512.1c124.3-50.7 187-73.7 362.6-86.5v-105.5c0-11.8 9.6-21.3 21.3-21.3 11.8 0 21.3 9.6 21.3 21.3V722.7c0 11.3-8.9 20.5-20.1 21.3-188.6 12.4-247 35.1-369 84.8C523 831 517.5 832 512 832s-11-1-16.2-3.1c-122-49.7-180.4-72.4-369-84.8-11.2-0.7-20.1-10-20.1-21.3v-393.7C105.5 98.20000000000005 503.6-64 511.9-64c0.1 0 0.1 0 0.1 0.1 0 0 0-0.1 0.1-0.1 8.3 0 406.4 162.2 405.2 393.1v97.6c0 11.7-9.5 21.3-21.3 21.3z"  horiz-adv-x="1024" />
      
      <glyph glyph-name="jiaowutongji" unicode="&#59151;" d="M885.8 630.6c-3.9 5.9-10.7 9.4-17.8 9.4-17.1 0-26.8-18.9-17.4-33.2 50-75.7 75.3-169.1 64.3-268.8-20.7-187.8-173.4-338.6-361.4-357.3-256-25.4-469.4 187.7-444.8 443.5 17.9 185.7 165 337.8 350.1 361.6 111.5 14.3 215.2-17.1 295.9-77.6 3.7-2.7 8.1-4.3 12.6-4.3 20.5 0 29.5 26.3 13.1 38.6-87.2 65.4-199 99.8-319.1 86.6C253.9 806.3 87.5 638.5 66.4 431c-28.9-283.6 207-520.3 490.4-492.9 211.9 20.5 382.6 193.1 401.4 405.1 9.5 106.7-18.7 206.2-72.4 287.4zM736 341.29999999999995c11.7 0 21.3 9.6 21.3 21.3v128c0 4.8-1.9 9.1-4.6 12.7-0.6 0.8-0.9 1.7-1.6 2.4-0.7 0.7-1.6 1-2.4 1.6-3.6 2.7-7.8 4.6-12.7 4.6H608c-11.7 0-21.3-9.6-21.3-21.3s9.6-21.3 21.3-21.3h76.5L544 328.79999999999995l-91.6 91.6c-8.3 8.3-21.8 8.3-30.2 0L272.9 271.1c-8.3-8.3-8.3-21.8 0-30.2 4.2-4.2 9.6-6.3 15.1-6.3s10.9 2.1 15.1 6.3l134.3 134.3 91.6-91.6c8.3-8.3 21.8-8.3 30.2 0l155.6 155.6v-76.5c-0.1-11.8 9.5-21.4 21.2-21.4z"  horiz-adv-x="1024" />
      
      <glyph glyph-name="jiaoxuetongji" unicode="&#59152;" d="M355.2 652.8c12.3 0 22.4 10.1 22.4 22.4V809.6c0 12.3-10.1 22.4-22.4 22.4-12.3 0-22.4-10.1-22.4-22.4v-134.4c0-12.3 10.1-22.4 22.4-22.4z m156.8 0c12.3 0 22.4 10.1 22.4 22.4V809.6c0 12.3-10.1 22.4-22.4 22.4-12.3 0-22.4-10.1-22.4-22.4v-134.4c0-12.3 10.1-22.4 22.4-22.4z m156.8 0c12.3 0 22.4 10.1 22.4 22.4V809.6c0 12.3-10.1 22.4-22.4 22.4-12.3 0-22.4-10.1-22.4-22.4v-134.4c0-12.3 10.1-22.4 22.4-22.4z m246.4 112H780.8c-12.4 0-22.4-10-22.4-22.4 0-12.4 10-22.4 22.4-22.4h112c12.4 0 22.4-10 22.4-22.4v-134.4H108.8V697.6c0 12.4 10 22.4 22.4 22.4h112c12.4 0 22.4 10 22.4 22.4 0 12.4-10 22.4-22.4 22.4H108.8C84.1 764.8 64 744.7 64 720v-739.2c0-24.7 20.1-44.8 44.8-44.8h806.4c24.7 0 44.8 20.1 44.8 44.8V720c0 24.7-20.1 44.8-44.8 44.8z m0-761.6c0-12.4-10-22.4-22.4-22.4H131.2c-12.4 0-22.4 10-22.4 22.4V518.4h806.4v-515.2z m-642.1 112c5.7 0 11.5 2.2 15.8 6.6l164.7 164.7 118.7-98.9c9-7.5 22.3-6.8 30.4 1.6L767 359.1c8.6 8.9 8.4 23.1-0.5 31.7-8.9 8.6-23.1 8.4-31.7-0.5L585 235.29999999999995 466.6 334c-8.9 7.4-22 6.8-30.2-1.4L257.2 153.39999999999998c-8.8-8.8-8.8-22.9 0-31.7 4.4-4.3 10.1-6.5 15.9-6.5z"  horiz-adv-x="1024" />
      
      <glyph glyph-name="shoufeitongji" unicode="&#59153;" d="M931.2 167.20000000000005l-60.8-27.4V496c0 12.4-10 22.4-22.4 22.4s-22.4-10-22.4-22.4v-376.3L516.9-19.200000000000045l-4.9-2.2-313.6 141.1V764.8c0 12.3 10.1 22.4 22.4 22.4h582.4c12.3 0 22.4-10.1 22.4-22.4v-89.6c0-12.4 10-22.4 22.4-22.4s22.4 10 22.4 22.4v112c0 24.6-20.2 44.8-44.8 44.8H198.4c-24.6 0-44.8-20.2-44.8-44.8v-647.4l-60.8 27.4c-13.5 6.1-28.8-3.8-28.8-18.6 0-8 4.7-15.3 12-18.6l77.6-34.9 44.8-20.2 209.2-94.1 95.2-42.8c2.9-1.3 6-2 9.2-2 3.1 0 6.3 0.7 9.2 2l95.2 42.8 209.2 94.1 44.8 20.2L948 130c7.3 3.3 12 10.6 12 18.6 0 14.8-15.3 24.7-28.8 18.6zM661.4 593c-8.7 8.7-23 8.7-31.7 0L512 475.4 394.3 593c-8.7 8.7-23 8.7-31.7 0s-8.7-23 0-31.7l87.8-87.8h-61.6c-12.3 0-22.4-10.1-22.4-22.4 0-12.3 10.1-22.4 22.4-22.4h100.8v-67.2H388.8c-12.3 0-22.4-10.1-22.4-22.4 0-12.3 10.1-22.4 22.4-22.4h100.8v-89.6c0-12.3 10.1-22.4 22.4-22.4 12.3 0 22.4 10.1 22.4 22.4v89.6h100.8c12.3 0 22.4 10.1 22.4 22.4 0 12.3-10.1 22.4-22.4 22.4H534.4v67.2h100.8c12.3 0 22.4 10.1 22.4 22.4 0 12.3-10.1 22.4-22.4 22.4h-61.6l87.8 87.8c8.7 8.8 8.7 23 0 31.7z"  horiz-adv-x="1024" />
      
      <glyph glyph-name="fuwutongji" unicode="&#59155;" d="M512 832C264.6 832 64 631.4 64 384s200.6-448 448-448 448 200.6 448 448H512V832z m403-490.7c-21.4-203.5-194-362.7-403-362.7-223.5 0-405.3 181.8-405.3 405.3 0 209.1 159.2 381.6 362.7 403v-445.7H915zM597.3 832v-362.7H960C960 669.6 797.6 832 597.3 832zM640 512V786.5C782.4 767.4 895.4 654.4 914.5 512H640z"  horiz-adv-x="1024" />
      
      <glyph glyph-name="tongzhitongji" unicode="&#59156;" d="M736 630.4V496c0-12.4 10-22.4 22.4-22.4 12.4 0 22.4 10 22.4 22.4V630.4c0 12.4-10 22.4-22.4 22.4-12.4 0-22.4-10-22.4-22.4z m-164.3 0v-313.6c0-12.4 10-22.4 22.4-22.4 12.4 0 22.4 10 22.4 22.4V630.4c0 12.4-10 22.4-22.4 22.4-12.3 0-22.4-10-22.4-22.4z m365.9 22.4c12.4 0 22.4 10 22.4 22.4v112c0 24.6-20.2 44.8-44.8 44.8H108.8C84.2 832 64 811.8 64 787.2v-806.4c0-24.6 20.2-44.8 44.8-44.8h806.4c24.6 0 44.8 20.2 44.8 44.8V496c0 12.4-10 22.4-22.4 22.4-12.4 0-22.4-10-22.4-22.4v-492.8c0-12.4-10-22.4-22.4-22.4H131.2c-12.4 0-22.4 10-22.4 22.4V764.8c0 12.4 10 22.4 22.4 22.4h761.6c12.4 0 22.4-10 22.4-22.4v-89.6c0-12.4 10-22.4 22.4-22.4z m-694.4-22.4v-492.8c0-12.3 10.1-22.4 22.4-22.4s22.4 10.1 22.4 22.4V630.4c0 12.3-10.1 22.4-22.4 22.4s-22.4-10.1-22.4-22.4z m164.3 0v-224c0-12.4 10-22.4 22.4-22.4 12.4 0 22.4 10 22.4 22.4v224c0 12.4-10 22.4-22.4 22.4-12.4 0-22.4-10-22.4-22.4z"  horiz-adv-x="1024" />
      
      <glyph glyph-name="kaohetongji" unicode="&#59157;" d="M469.3 149.29999999999995h277.3V192H469.3v-42.7zM746.7 320H469.3v-42.7h277.3V320zM896 661.3c11.8 0 21.3 9.6 21.3 21.3V789.3c0 23.6-19.1 42.7-42.7 42.7H149.3c-23.6 0-42.7-19.1-42.7-42.7v-810.7c0-23.6 19.1-42.7 42.7-42.7h725.3c23.6 0 42.7 19.1 42.7 42.7V512c0 11.8-9.6 21.3-21.3 21.3s-21.3-9.6-21.3-21.3v-512c0-11.8-9.6-21.3-21.3-21.3H170.7c-11.8 0-21.3 9.6-21.3 21.3V768c0 11.8 9.6 21.3 21.3 21.3h682.7c11.8 0 21.3-9.6 21.3-21.3v-85.3c0-11.8 9.5-21.4 21.3-21.4zM746.7 490.7H469.3V448h277.3v42.7z m-341.4-21.4h-42.7V640h-85.3v-42.7H320v-128h-42.7v-42.7h128v42.7z m-42.6-170.6V256h42.7v85.3h-128V256H320v42.7h42.7z m0-42.7H320v-42.7h42.7V256z m384 362.7H469.3V576h277.3v42.7zM277.3 213.29999999999995V128h128v42.7H320v42.7h-42.7z"  horiz-adv-x="1024" />
      
      <glyph glyph-name="yonghuhuoyuedu" unicode="&#59158;" d="M847.3 331.6H744.9L682.1 486c-3.4 8.4-11.7 13.7-20.7 13.3-9-0.4-16.8-6.4-19.5-15l-61.3-199.1-97.4 240.3c-3.4 8.3-11.8 14-20.6 13.3-9-0.4-16.8-6.3-19.5-14.9l-66.4-211.6-44.7 73.2c-3.5 5.7-9.5 9.5-16.2 10.1-6.7 0.6-13.3-2-17.8-7l-51.5-57h-69.8c-11.8 0-21.3-9.5-21.3-21.3s9.5-21.3 21.3-21.3H256c6 0 11.8 2.6 15.8 7l38.7 42.8 54.3-88.9c4.4-7.2 12.6-11.3 20.8-10 8.3 1 15.3 6.8 17.8 14.8l62.7 199.7 97.6-240.8c3.3-8.1 11.1-13.3 19.8-13.3h0.9c9 0.4 16.8 6.4 19.5 15l61.3 199.2 45.7-112.2c3.3-8 11.1-13.3 19.8-13.3h116.7c11.8 0 21.3 9.5 21.3 21.3-0.1 11.8-9.6 21.3-21.4 21.3z m-121.9-96.9c-5.7 0-11.1-2.3-15.1-6.3L512 30 313.7 228.39999999999998c-4 4-9.4 6.3-15.1 6.3-19 0-28.5-23-15.1-36.4l213-213.2c4.3-4.3 9.9-6.4 15.5-6.4s11.2 2.1 15.5 6.4l213 213.2c13.4 13.4 3.9 36.4-15.1 36.4z m157.8 477.7c-51.3 51.3-118.4 76.9-185.6 76.9-67.2 0-134.3-25.6-185.6-76.9-51.3 51.3-118.4 76.9-185.6 76.9s-134.3-25.6-185.6-76.9C54.7 626.3 41 495.2 99.6 394.7c3.9-6.7 11.3-10.7 19.1-10.7 16.6 0 27.5 17.8 19.3 32.3-45.9 81.5-39.8 186.1 25.4 258 47.4 52.2 115 78.3 185.7 71.2 52.2-5.2 100.3-30.9 137.5-68.1l10.3-10.3c8.3-8.3 21.9-8.3 30.2 0L538 678c36.5 36.5 83.8 61.8 135.1 67.3 70.4 7.6 137.8-17.7 185.4-68.8 66.9-71.8 73.7-177.7 27.4-260.2-8.1-14.5 2.8-32.3 19.4-32.3 7.8 0 15.2 4 19.1 10.7 58.6 100.5 44.9 231.6-41.2 317.7z"  horiz-adv-x="1024" />
      
      <glyph glyph-name="xueshengbaoming" unicode="&#59159;" d="M361.9 428.9c0 14.1-8.7 26.6-21.8 31.9-72.7 29.8-120.5 108.2-102.3 194.7 13.7 65 62.5 114.7 127.3 129.3 65.7 14.8 126.9-8.6 166.2-52.2 4.1-4.6 9.8-7.4 16-7.4 18.2 0 28.5 21.6 16.4 35.2-48.6 54.5-124.6 84-206.5 66.4C271.4 808.4 208 740.6 194.1 654c-15.4-96.1 33.4-182.6 110.3-223.6-108.9-38.9-188.8-138.9-197.6-258.9-0.9-11.9 8.3-22.1 20.2-22.1h2.2c10.9 0 19.4 8.6 20.2 19.4 8.2 109 85.1 199 187.4 227.1 14.8 4.1 25.1 17.6 25.1 33zM896 85.29999999999995h-85.3v85.3c0 11.7-9.6 21.3-21.3 21.3s-21.3-9.6-21.3-21.3v-85.3h-85.3c-11.7 0-21.3-9.6-21.3-21.3 0-11.7 9.6-21.3 21.3-21.3H768v-85.3c0-11.7 9.6-21.3 21.3-21.3s21.3 9.6 21.3 21.3v85.3H896c11.7 0 21.3 9.6 21.3 21.3 0 11.7-9.6 21.3-21.3 21.3z m-46.5 321.8C876.7 553 755 679 610.1 659.3c-97-13.2-173.8-94-182.5-191.5-8.1-89.8 39.5-169.3 112.2-208.1C431.2 221 351.5 121.5 342.2 2c-1-12.5 8.7-23.4 21.3-23.4 10.9 0 20.4 8.2 21.2 19.1 9.7 130.5 117.6 234.1 249.9 236.8 103.5 2.3 196 70.8 214.9 172.6z m-176-126.6c-120-22.9-223.9 80.9-200.9 200.9 12.8 67.1 66.9 121.2 134 134 120 22.9 223.8-80.9 200.9-200.9-12.8-67-67-121.1-134-134z"  horiz-adv-x="1024" />
      
      <glyph glyph-name="xueshengluqu" unicode="&#59160;" d="M576.3 458.5c-8.7 8.7-22.9 8.7-31.7 0-8.7-8.7-8.7-22.9 0-31.7l47.5-47.5c4.4-4.4 10.1-6.6 15.9-6.6 5.8 0 11.5 2.2 15.9 6.5l79.2 79.2c8.7 8.7 8.7 23 0 31.7s-23 8.7-31.7 0L608 426.8l-31.7 31.7zM915.2 137.60000000000002v-134.4c0-12.4-10-22.4-22.4-22.4H131.2c-12.4 0-22.4 10-22.4 22.4V401.4c0 8.9 9.9 14.2 17.3 9.4l72.3-47 44.8-29.1 256.6-166.8c7.4-4.8 17-4.8 24.4 0l256.6 166.8 44.8 29.1 72.3 47c7.5 4.8 17.3-0.5 17.3-9.4v-84.6c0-12.4 10-22.4 22.4-22.4 12.4 0 22.4 10 22.4 22.4v96.6c0 35.5-39.4 56.9-69.2 37.6l-65.2-42.4V787.2c0 24.7-20.1 44.8-44.8 44.8H243.2c-24.7 0-44.8-20.1-44.8-44.8v-378.6L133.2 451c-29.8 19.4-69.2-2-69.2-37.6v-432.6c0-24.7 20.1-44.8 44.8-44.8h806.4c24.7 0 44.8 20.1 44.8 44.8V137.60000000000002c0 12.4-10 22.4-22.4 22.4-12.4 0-22.4-10-22.4-22.4z m-672 627.2c0 12.4 10 22.4 22.4 22.4h492.8c12.4 0 22.4-10 22.4-22.4v-385.3L512 204.79999999999995 243.2 379.5V764.8zM620 608c0 61.9-50.1 112-112 112s-112-50.1-112-112c0-33.7 15.2-63.5 38.6-84-48.7-23.7-84.3-70.2-92.7-125.7-2-13.4 8.8-25.5 22.3-25.5 11.1 0 20.3 8.1 22 19.1 9.2 59 60.2 104.1 121.7 104.1 62 0 112.1 50.1 112.1 112z m-112-67.2c-37.1 0-67.2 30.1-67.2 67.2s30.1 67.2 67.2 67.2 67.2-30.1 67.2-67.2-30.1-67.2-67.2-67.2z"  horiz-adv-x="1024" />
      
      <glyph glyph-name="xueshengzhuce" unicode="&#59161;" d="M752.9 277.29999999999995c20 0 29 25.3 13.4 37.9-42 34-91 59.7-144.5 74.8 74.3 39.4 124.9 117.4 124.9 207.3C746.7 726.9 641.6 832 512 832S277.3 726.9 277.3 597.3c0-90 50.7-168 125-207.4C231.9 342.1 106.7 185.79999999999995 106.7 0c0-15.5 1.1-30.7 2.9-45.7 1.3-10.5 10.5-18.3 21.1-18.3 12.5 0 22.6 10.8 21.1 23.3-1.6 13.4-2.5 26.9-2.5 40.7 0 200.3 162.4 362.7 362.7 362.7 86.3 0 165.5-30.3 227.7-80.6 3.8-3.1 8.4-4.8 13.2-4.8zM320 597.3c0 106 86 192 192 192s192-86 192-192-86-192-192-192-192 86-192 192z m576-512h-85.3v85.3c0 11.7-9.6 21.3-21.3 21.3-11.7 0-21.3-9.6-21.3-21.3v-85.3h-85.3c-11.7 0-21.3-9.6-21.3-21.3s9.6-21.3 21.3-21.3H768v-85.3c0-11.7 9.6-21.3 21.3-21.3 11.7 0 21.3 9.6 21.3 21.3v85.3H896c11.7 0 21.3 9.6 21.3 21.3s-9.6 21.3-21.3 21.3z"  horiz-adv-x="1024" />
      
      <glyph glyph-name="zaijixuesheng" unicode="&#59162;" d="M621.6 389.9c50.2 26.6 89.5 70.6 109.7 124.2 5.3 13.4 9.2 27.3 11.7 41.6 0 0.6 0.2 1.1 0.2 1.7 2.1 12.6 3.4 25.6 3.4 38.6v1.3C746.7 727 641.7 832 512 832c-107.1 0-197.1-71.5-225.5-169.4-3.8-13.4-6.6-27.3-7.9-41.6-0.9-7.9-1.3-15.8-1.3-23.7 0-6.4 0.2-12.6 0.9-18.8 1.1-16.4 4.1-32.4 8.7-47.6 18-61.1 60.1-111.8 115.3-141.1C231.8 342 106.7 185.79999999999995 106.7 0c0-15.5 1.1-30.7 2.9-45.7 1.3-10.5 10.5-18.3 21.1-18.3 12.5 0 22.6 10.8 21.1 23.3-1.6 13.4-2.5 26.9-2.5 40.7 0 200.3 162.4 362.7 362.7 362.7S874.7 200.29999999999995 874.7 0c0-13.8-0.9-27.4-2.5-40.7-1.5-12.5 8.6-23.3 21.1-23.3 10.6 0 19.8 7.8 21.1 18.3 1.8 15 2.9 30.2 2.9 45.7 0 185.8-125.1 342-295.7 389.9zM512 789.3c106 0 192-86 192-192v-0.6c-56.1 7.3-98.6 76.2-99 77-3.6 6-9.6 9.8-16.4 10.2-6.8 0.6-13.4-1.9-17.9-7-41.8-47.8-87-72.7-134.4-74.5-48-1.9-88.5 20.3-111.8 36.7 19.2 86 95.8 150.2 187.5 150.2zM334.7 523.9c-6 13.9-10 28.6-12.6 43.9-1.1 7.7-1.7 15.6-1.9 23.5 27.5-16.2 66.1-31.8 110.7-31.8 2.1 0 4.3 0 6.4 0.2 52.5 1.7 102 25 147 69.3 21.1-26.7 62.1-68.7 114.8-74.9-2.6-11.1-6-22-10.7-32.2-29-68.7-97.1-116.7-176.4-116.7-80 0.1-148.7 49-177.3 118.7z"  horiz-adv-x="1024" />
      
      <glyph glyph-name="huamingce" unicode="&#59163;" d="M277.3 234.70000000000005c0 11.7-9.6 21.3-21.3 21.3H128c-11.7 0-21.3-9.6-21.3-21.3 0-11.7 9.6-21.3 21.3-21.3h128c11.7-0.1 21.3 9.5 21.3 21.3zM128 512h128c11.7 0 21.3 9.6 21.3 21.3 0 11.7-9.6 21.3-21.3 21.3H128c-11.7 0-21.3-9.6-21.3-21.3 0-11.7 9.6-21.3 21.3-21.3z m0-149.3h128c11.7 0 21.3 9.6 21.3 21.3 0 11.7-9.6 21.3-21.3 21.3H128c-11.7 0-21.3-9.6-21.3-21.3 0-11.7 9.6-21.3 21.3-21.3zM874.7 832H213.3c-23.6 0-42.7-19.1-42.7-42.7v-106.7c0-11.8 9.6-21.3 21.3-21.3s21.3 9.6 21.3 21.3V768c0 11.8 9.6 21.3 21.3 21.3h618.7c11.8 0 21.3-9.6 21.3-21.3v-768c0-11.8-9.6-21.3-21.3-21.3H234.7c-11.8 0-21.3 9.6-21.3 21.3v85.3c0 11.8-9.6 21.3-21.3 21.3s-21.3-9.6-21.3-21.3v-106.7c0-23.6 19.1-42.7 42.7-42.7h661.3c23.6 0 42.7 19.1 42.7 42.7V789.3c-0.2 23.6-19.3 42.7-42.8 42.7zM363 195.79999999999995c-4.1-12.3 5.3-25.1 18.3-25.1h4.8c8.4 0 15.5 5.6 18.3 13.6 23.2 66.6 86.4 114.4 161 114.4s137.7-47.8 161-114.4c2.8-7.9 9.9-13.6 18.3-13.6h4.8c13 0 22.4 12.8 18.3 25.1-19.4 57.9-62.9 104.7-118.7 128.5 39.6 26.9 65.7 72.2 65.7 123.7 0 82.5-66.9 149.3-149.3 149.3S416 530.5 416 448c0-51.5 26.1-96.9 65.7-123.7-55.7-23.8-99.3-70.6-118.7-128.5zM458.7 448c0 58.9 47.8 106.7 106.7 106.7S672 506.9 672 448s-47.8-106.7-106.7-106.7S458.7 389.1 458.7 448z"  horiz-adv-x="1024" />
      
      <glyph glyph-name="fenleiguanli" unicode="&#59164;" d="M752.8 350.4H545.6v-207.2c0-114.4 92.8-207.2 207.2-207.2S960 28.799999999999955 960 143.20000000000005s-92.8 207.2-207.2 207.2z m0-369.6c-89.5 0-162.4 72.9-162.4 162.4V305.6h162.4c89.5 0 162.4-72.9 162.4-162.4s-72.9-162.4-162.4-162.4z m207.2 644C960 739.2 867.2 832 752.8 832s-207.2-92.8-207.2-207.2v-207.2h207.2c114.4 0 207.2 92.8 207.2 207.2z m-369.6 0c0 89.5 72.9 162.4 162.4 162.4s162.4-72.9 162.4-162.4-72.9-162.4-162.4-162.4H590.4V624.8zM64.4 157c-7.8-120.7 87.8-221 206.8-221 72.5 0 136.3 37.3 173.3 93.7 9.9 15-0.6 35.1-18.6 35.1-7.8 0-14.8-4.2-19.1-10.7-34.1-51.7-96.9-82.9-165.5-70.6C176.9-5 124.6 46.39999999999998 112 110.60000000000002c-20.3 103.8 59 195 159.2 195h162.4v-56c0-12.4 10-22.4 22.4-22.4 12.4 0 22.4 10 22.4 22.4V350.4H278.3c-110.4 0-206.7-83.3-213.9-193.4zM271.2 832C156.8 832 64 739.2 64 624.8s92.8-207.2 207.2-207.2h207.2V624.8C478.4 739.2 385.6 832 271.2 832z m162.4-369.6H271.2c-89.5 0-162.4 72.9-162.4 162.4s72.9 162.4 162.4 162.4 162.4-72.9 162.4-162.4v-162.4z m22.4-280c-12.4 0-22.4-10-22.4-22.4v-16.8c0-6.5-0.4-12.9-1.2-19.2-1.7-13.6 8.4-25.6 22-25.6 11.4 0 21 8.5 22.4 19.8 1 8.2 1.6 16.5 1.6 25V160c0 12.4-10 22.4-22.4 22.4z"  horiz-adv-x="1024" />
      
      <glyph glyph-name="fuwuliebiao" unicode="&#59165;" d="M277.3 320h341.3c11.7 0 21.3 9.6 21.3 21.3 0 11.7-9.6 21.3-21.3 21.3H277.3c-11.7 0-21.3-9.6-21.3-21.3 0-11.7 9.6-21.3 21.3-21.3zM896 661.3c11.8 0 21.3 9.6 21.3 21.3V789.3c0 23.5-19.2 42.7-42.7 42.7H149.3c-23.5 0-42.7-19.2-42.7-42.7v-810.7c0-23.5 19.2-42.7 42.7-42.7h725.3c23.5 0 42.7 19.2 42.7 42.7V512c0 11.8-9.6 21.3-21.3 21.3s-21.3-9.6-21.3-21.3v-512c0-11.8-9.6-21.3-21.3-21.3H170.7c-11.8 0-21.3 9.6-21.3 21.3V768c0 11.8 9.6 21.3 21.3 21.3h682.7c11.8 0 21.3-9.6 21.3-21.3v-85.3c0-11.8 9.5-21.4 21.3-21.4z m-618.7-512h469.3c11.7 0 21.3 9.6 21.3 21.3 0 11.7-9.6 21.3-21.3 21.3H277.3c-11.7 0-21.3-9.6-21.3-21.3 0-11.7 9.6-21.3 21.3-21.3zM576 554.7c0 35.3-28.7 64-64 64s-64-28.7-64-64 28.7-64 64-64 64 28.6 64 64z m-85.3 0c0 11.8 9.6 21.3 21.3 21.3 11.8 0 21.3-9.6 21.3-21.3 0-11.8-9.6-21.3-21.3-21.3-11.8-0.1-21.3 9.5-21.3 21.3z m213.3 64c-35.3 0-64-28.7-64-64s28.7-64 64-64 64 28.7 64 64-28.7 64-64 64z m0-85.4c-11.8 0-21.3 9.6-21.3 21.3 0 11.8 9.6 21.3 21.3 21.3s21.3-9.6 21.3-21.3c0-11.7-9.5-21.3-21.3-21.3z m-384-42.6c35.3 0 64 28.7 64 64s-28.7 64-64 64-64-28.7-64-64 28.7-64 64-64z m0 85.3c11.8 0 21.3-9.6 21.3-21.3 0-11.8-9.6-21.3-21.3-21.3s-21.3 9.6-21.3 21.3c0 11.7 9.5 21.3 21.3 21.3z"  horiz-adv-x="1024" />
      
      <glyph glyph-name="fenleiliebiao" unicode="&#59166;" d="M917.3 202.70000000000005H106.7C83.1 202.70000000000005 64 183.60000000000002 64 160v-138.7c0-23.6 19.1-42.7 42.7-42.7h810.7c23.6 0 42.7 19.1 42.7 42.7V160c-0.1 23.6-19.2 42.7-42.8 42.7z m0-160c0-11.8-9.6-21.3-21.3-21.3H128c-11.8 0-21.3 9.6-21.3 21.3v96c0 11.8 9.6 21.3 21.3 21.3h768c11.8 0 21.3-9.6 21.3-21.3v-96z m42.7 432c0 11.8-9.6 21.3-21.3 21.3h-832C83.1 496 64 476.9 64 453.3v-138.7c0-23.6 19.1-42.7 42.7-42.7h832c11.8 0 21.3 9.6 21.3 21.3 0 11.8-9.6 21.3-21.3 21.3H128c-11.8 0-21.3 9.6-21.3 21.3v96c0 11.8 9.6 21.3 21.3 21.3h810.7c11.7 0.2 21.3 9.8 21.3 21.6zM842.7 117.29999999999995h-32c-5.9 0-10.7-4.8-10.7-10.7v-32c0-5.9 4.8-10.7 10.7-10.7h32c5.9 0 10.7 4.8 10.7 10.7v32c-0.1 6-4.8 10.7-10.7 10.7z m74.6 672H106.7c-23.6 0-42.7-19.1-42.7-42.7V608c0-23.6 19.1-42.7 42.7-42.7h810.7c23.6 0 42.7 19.1 42.7 42.7V746.7c-0.1 23.5-19.2 42.6-42.8 42.6z m0-160c0-11.8-9.6-21.3-21.3-21.3H128c-11.8 0-21.3 9.6-21.3 21.3v96c0 11.8 9.6 21.3 21.3 21.3h768c11.8 0 21.3-9.6 21.3-21.3v-96z m-736-218.6c-5.9 0-10.7-4.8-10.7-10.7v-32c0-5.9 4.8-10.7 10.7-10.7h32c5.9 0 10.7 4.8 10.7 10.7v32c0 5.9-4.8 10.7-10.7 10.7h-32zM842.7 704h-32c-5.9 0-10.7-4.8-10.7-10.7v-32c0-5.9 4.8-10.7 10.7-10.7h32c5.9 0 10.7 4.8 10.7 10.7v32c-0.1 5.9-4.8 10.7-10.7 10.7z"  horiz-adv-x="1024" />
      
      <glyph glyph-name="tongzhiliebiao" unicode="&#59167;" d="M789.3 341.29999999999995h-192c-11.7 0-21.3-9.6-21.3-21.3s9.6-21.3 21.3-21.3h192c11.7 0 21.3 9.6 21.3 21.3s-9.5 21.3-21.3 21.3z m149.4 277.4c11.8 0 21.3 9.6 21.3 21.3V746.7c0 23.6-19.1 42.7-42.7 42.7H106.7c-23.6 0-42.7-19.1-42.7-42.7V192c0-23.6 19.1-42.7 42.7-42.7h282.6L475 0.10000000000002274c8.2-14.3 22.6-21.4 37-21.4s28.8 7.1 37 21.4l85.7 149.3h282.6c23.6 0 42.7 19.1 42.7 42.7V469.3c0 11.8-9.6 21.3-21.3 21.3-11.8 0-21.3-9.6-21.3-21.3v-256c0-11.8-9.6-21.3-21.3-21.3H634.7c-15.3 0-29.4-8.2-37-21.4L512 21.299999999999955l-85.7 149.3c-7.6 13.2-21.7 21.4-37 21.4H128c-11.8 0-21.3 9.6-21.3 21.3v512c0 11.8 9.6 21.3 21.3 21.3h768c11.8 0 21.3-9.6 21.3-21.3V640c0-11.8 9.6-21.3 21.4-21.3zM789.3 640H384c-11.7 0-21.3-9.6-21.3-21.3 0-11.7 9.6-21.3 21.3-21.3h405.3c11.7 0 21.3 9.6 21.3 21.3 0.1 11.7-9.5 21.3-21.3 21.3z m0-149.3H490.7c-11.7 0-21.3-9.6-21.3-21.3 0-11.7 9.6-21.3 21.3-21.3h298.7c11.7 0 21.3 9.6 21.3 21.3 0 11.7-9.6 21.3-21.4 21.3zM256 661.3c-23.6 0-42.7-19.1-42.7-42.7s19.1-42.7 42.7-42.7 42.7 19.1 42.7 42.7-19.1 42.7-42.7 42.7z m0-149.3c-23.6 0-42.7-19.1-42.7-42.7s19.1-42.7 42.7-42.7 42.7 19.1 42.7 42.7S279.6 512 256 512z m0-149.3c-23.6 0-42.7-19.1-42.7-42.7s19.1-42.7 42.7-42.7 42.7 19.1 42.7 42.7-19.1 42.7-42.7 42.7z"  horiz-adv-x="1024" />
      
      <glyph glyph-name="jiaoxuejihua" unicode="&#59168;" d="M937.6 652.8c12.4 0 22.4 10 22.4 22.4v112c0 24.7-20.1 44.8-44.8 44.8H108.8C84.1 832 64 811.9 64 787.2v-806.4c0-24.7 20.1-44.8 44.8-44.8h806.4c24.7 0 44.8 20.1 44.8 44.8V496c0 12.4-10 22.4-22.4 22.4-12.4 0-22.4-10-22.4-22.4v-492.8c0-12.4-10-22.4-22.4-22.4H131.2c-12.4 0-22.4 10-22.4 22.4V764.8c0 12.4 10 22.4 22.4 22.4h761.6c12.4 0 22.4-10 22.4-22.4v-89.6c0-12.4 10-22.4 22.4-22.4zM736 339.20000000000005H288c-12.3 0-22.4-10.1-22.4-22.4 0-12.3 10.1-22.4 22.4-22.4h448c12.3 0 22.4 10.1 22.4 22.4 0 12.3-10.1 22.4-22.4 22.4z m0 179.2H621.7c-10.5 51-55.8 89.6-109.7 89.6s-99.3-38.6-109.7-89.6H288c-12.3 0-22.4-10.1-22.4-22.4s10.1-22.4 22.4-22.4h156.8V496c0 37.1 30.1 67.2 67.2 67.2s67.2-30.1 67.2-67.2v-22.4H736c12.3 0 22.4 10.1 22.4 22.4s-10.1 22.4-22.4 22.4z m0-336H288c-12.3 0-22.4-10.1-22.4-22.4s10.1-22.4 22.4-22.4h448c12.3 0 22.4 10.1 22.4 22.4s-10.1 22.4-22.4 22.4z"  horiz-adv-x="1024" />
      
      <glyph glyph-name="jiaoxueanpai" unicode="&#59169;" d="M896 661.3c11.8 0 21.3 9.6 21.3 21.3V789.3c0 23.6-19.1 42.7-42.7 42.7H149.3c-23.6 0-42.7-19.1-42.7-42.7v-746.7c0-58.7 48-106.7 106.7-106.7H896c11.8 0 21.3 9.6 21.3 21.3 0 11.8-9.6 21.3-21.3 21.3H215.9c-31 0-59.4 20.9-65.3 51.2-7.9 40.9 23.3 76.8 62.8 76.8H896c11.8 0 21.3 9.6 21.3 21.3V512c0 11.8-9.6 21.3-21.3 21.3s-21.3-9.6-21.3-21.3v-362.7H213.3c-24.1 0-46.1-8.4-64-22V768c0 11.8 9.6 21.3 21.3 21.3h682.7c11.8 0 21.3-9.6 21.3-21.3v-85.3c0.1-11.8 9.6-21.4 21.4-21.4zM684.2 590L488.1 393.9 382.5 499.5c-8.3 8.3-21.8 8.3-30.2 0-8.3-8.3-8.3-21.8 0-30.2L473 348.70000000000005h0.1c2.1-2 4.4-3.6 7-4.6 0.3-0.1 0.7-0.1 1-0.2 2.3-0.8 4.6-1.4 7-1.4 5.5 0 11 2.1 15.1 6.2l211.2 211.2c8.3 8.3 8.3 21.9 0 30.2-8.3 8.2-21.9 8.2-30.2-0.1z"  horiz-adv-x="1024" />
      
      <glyph glyph-name="chengjiguanli" unicode="&#59170;" d="M758.4 294.4H265.6c-12.3 0-22.4-10.1-22.4-22.4s10.1-22.4 22.4-22.4h492.8c12.3 0 22.4 10.1 22.4 22.4s-10.1 22.4-22.4 22.4z m179.2 358.4c12.4 0 22.4 10 22.4 22.4v112c0 24.7-20.1 44.8-44.8 44.8H108.8C84.1 832 64 811.9 64 787.2v-806.4c0-24.7 20.1-44.8 44.8-44.8h806.4c24.7 0 44.8 20.1 44.8 44.8V496c0 12.4-10 22.4-22.4 22.4-12.4 0-22.4-10-22.4-22.4v-492.8c0-12.4-10-22.4-22.4-22.4H131.2c-12.4 0-22.4 10-22.4 22.4V764.8c0 12.4 10 22.4 22.4 22.4h761.6c12.4 0 22.4-10 22.4-22.4v-89.6c0-12.4 10-22.4 22.4-22.4zM257.9 378c11.6-4.2 24.5 1.8 28.7 13.4l20.5 56.2h85.5l20.5-56.2c4.2-11.6 17.1-17.6 28.7-13.4 11.6 4.2 17.6 17.1 13.4 28.7l-84.3 231.5c-0.1 0.3-0.3 0.5-0.5 0.8-0.7 1.6-1.7 3-2.7 4.4-0.7 1-1.2 2-2.1 2.9-1.1 1.1-2.4 1.9-3.8 2.7-1.1 0.7-2.2 1.6-3.4 2.1-0.3 0.1-0.6 0.4-0.9 0.6-1.1 0.4-2.2 0.3-3.3 0.5-1.5 0.3-2.8 0.6-4.3 0.7-1.5 0-2.9-0.4-4.3-0.7-1.1-0.2-2.2-0.1-3.3-0.5-0.4-0.1-0.6-0.4-0.9-0.6-1.3-0.5-2.3-1.4-3.4-2.1-1.3-0.9-2.7-1.6-3.8-2.7-0.8-0.8-1.4-1.9-2.1-2.9-1-1.4-2-2.8-2.7-4.4-0.1-0.3-0.4-0.5-0.5-0.8l-84.3-231.5c-4.3-11.6 1.8-24.5 13.3-28.7z m91.9 187l26.4-72.6h-52.9l26.5 72.6z m408.6-405H265.6c-12.3 0-22.4-10.1-22.4-22.4 0-12.3 10.1-22.4 22.4-22.4h492.8c12.3 0 22.4 10.1 22.4 22.4 0 12.3-10.1 22.4-22.4 22.4zM579.2 652.8c-12.3 0-22.4-10.1-22.4-22.4v-44.8H512c-12.3 0-22.4-10.1-22.4-22.4 0-12.3 10.1-22.4 22.4-22.4h44.8V496c0-12.3 10.1-22.4 22.4-22.4 12.3 0 22.4 10.1 22.4 22.4v44.8h44.8c12.3 0 22.4 10.1 22.4 22.4 0 12.3-10.1 22.4-22.4 22.4h-44.8v44.8c0 12.3-10.1 22.4-22.4 22.4z"  horiz-adv-x="1024" />
      
      <glyph glyph-name="tupianguanli" unicode="&#59171;" d="M265.6 552c0-55.7 45.1-100.8 100.8-100.8S467.2 496.3 467.2 552s-45.1 100.8-100.8 100.8S265.6 607.7 265.6 552z m156.8 0c0-30.9-25.1-56-56-56s-56 25.1-56 56 25.1 56 56 56 56-25.1 56-56z m515.2-280c12.4 0 22.4 10 22.4 22.4V787.2c0 24.7-20.1 44.8-44.8 44.8H108.8C84.1 832 64 811.9 64 787.2v-806.4c0-24.7 20.1-44.8 44.8-44.8h806.4c24.7 0 44.8 20.1 44.8 44.8V130.70000000000005c0 7.2-3.4 13.9-9.2 18.1l-35.6 25.8L700 331c-0.3 0.2-0.7 0.3-1 0.5-1.2 0.8-2.4 1.2-3.7 1.7-1.4 0.6-2.8 1.3-4.3 1.6-1.4 0.3-2.8 0.1-4.2 0.1-1.4 0-2.8 0.1-4.2-0.1-1.5-0.3-2.8-1-4.3-1.6-1.3-0.5-2.5-0.9-3.7-1.7-0.3-0.2-0.7-0.2-1-0.5L505.5 208.89999999999998 301.1 357.29999999999995c-10 7.2-24 5-31.3-5-7.2-10-5-24 5-31.3l217.5-158c0.3-0.2 0.7-0.3 1-0.5 1.2-0.8 2.4-1.1 3.7-1.7 1.4-0.6 2.8-1.3 4.3-1.6 1.4-0.3 2.8-0.1 4.2-0.1 1.4 0 2.8-0.1 4.2 0.1 1.5 0.3 2.9 1 4.3 1.6 1.3 0.5 2.5 0.9 3.7 1.7 0.3 0.2 0.7 0.2 1 0.5l168.1 122.1 228.4-166V3c0-12.4-10-22.4-22.4-22.4H131.2c-12.4 0-22.4 10-22.4 22.4V764.8c0 12.4 10 22.4 22.4 22.4h761.6c12.4 0 22.4-10 22.4-22.4v-470.4c0-12.4 10-22.4 22.4-22.4z"  horiz-adv-x="1024" />
      
      <glyph glyph-name="kaoshijihua" unicode="&#59172;" d="M896 341.29999999999995c11.8 0 21.3 9.6 21.3 21.3V704c0 23.5-19.2 42.7-42.7 42.7h-192v64c0 11.7-9.6 21.3-21.3 21.3-11.7 0-21.3-9.6-21.3-21.3v-64H384v64c0 11.7-9.6 21.3-21.3 21.3-11.7 0-21.3-9.6-21.3-21.3v-64h-192c-23.5 0-42.7-19.2-42.7-42.7v-725.3c0-23.5 19.2-42.7 42.7-42.7h725.3c23.5 0 42.7 19.2 42.7 42.7V192c0 11.8-9.6 21.3-21.3 21.3s-21.3-9.6-21.3-21.3v-192c0-11.7-9.6-21.3-21.3-21.3H170.7c-11.7 0-21.3 9.6-21.3 21.3V469.3h725.3v-106.7c0-11.7 9.5-21.3 21.3-21.3zM149.3 512V682.7c0 11.7 9.6 21.3 21.3 21.3h170.7v-64c0-11.7 9.6-21.3 21.3-21.3 11.7 0 21.3 9.6 21.3 21.3v64h256v-64c0-11.7 9.6-21.3 21.3-21.3 11.7 0 21.3 9.6 21.3 21.3v64h170.7c11.7 0 21.3-9.6 21.3-21.3V512H149.3z m314.5-200.1L331.4 179.5l-60.3 60.3c-8.3 8.3-21.9 8.3-30.2 0s-8.3-21.9 0-30.2l75.4-75.4c4.1-4.1 9.6-6.2 15.1-6.2s10.9 2.1 15.1 6.2L494 281.70000000000005c8.3 8.3 8.3 21.9 0 30.2s-21.9 8.3-30.2 0zM768 170.70000000000005H576c-11.7 0-21.3-9.6-21.3-21.3 0-11.7 9.6-21.3 21.3-21.3h192c11.7 0 21.3 9.6 21.3 21.3 0 11.7-9.6 21.3-21.3 21.3z m0 149.3H576c-11.7 0-21.3-9.6-21.3-21.3 0-11.7 9.6-21.3 21.3-21.3h192c11.7 0 21.3 9.6 21.3 21.3 0 11.7-9.6 21.3-21.3 21.3z"  horiz-adv-x="1024" />
      
      <glyph glyph-name="kaoshipeizhi" unicode="&#59173;" d="M896 490.7H725.3c-11.8 0-21.3-9.6-21.3-21.3v-417.2c0-5.6 2.2-11 6.2-15L810.7-64l100.5 101.1c4 4 6.2 9.4 6.2 15V469.3c-0.1 11.8-9.6 21.4-21.4 21.4z m-21.3-425.8l-64-64.9-64 64.9V298.70000000000005h128v-233.8z m0 276.4h-128V448h128v-106.7z m0 490.7H149.3c-23.6 0-42.7-19.1-42.7-42.7v-810.7c0-23.6 19.1-42.7 42.7-42.7H640c11.8 0 21.3 9.6 21.3 21.3 0 11.8-9.6 21.3-21.3 21.3H170.7c-11.8 0-21.3 9.6-21.3 21.3V768c0 11.8 9.6 21.3 21.3 21.3h682.7c11.8 0 21.3-9.6 21.3-21.3v-170.7c0-11.8 9.6-21.3 21.3-21.3s21.3 9.6 21.3 21.3v192c0 23.6-19.1 42.7-42.6 42.7zM533.3 384c0 11.8-9.6 21.3-21.3 21.3H298.7c-11.8 0-21.3-9.6-21.3-21.3 0-11.8 9.6-21.3 21.3-21.3H512c11.8 0 21.3 9.5 21.3 21.3z m85.4 170.7c0 11.7-9.6 21.3-21.3 21.3H298.7c-11.7 0-21.3-9.6-21.3-21.3 0-11.7 9.6-21.3 21.3-21.3h298.7c11.7-0.1 21.3 9.5 21.3 21.3z m-320-320c-11.7 0-21.3-9.6-21.3-21.3 0-11.7 9.6-21.3 21.3-21.3h128c11.7 0 21.3 9.6 21.3 21.3 0 11.7-9.6 21.3-21.3 21.3h-128z"  horiz-adv-x="1024" />
      
      <glyph glyph-name="xuexizhongxinguanli" unicode="&#59174;" d="M896 661.3c11.8 0 21.3 9.6 21.3 21.3V789.3c0 23.6-19.1 42.7-42.7 42.7H149.3c-23.6 0-42.7-19.1-42.7-42.7v-746.7c0-58.7 48-106.7 106.7-106.7H896c11.8 0 21.3 9.6 21.3 21.3V512c0 11.8-9.6 21.3-21.3 21.3s-21.3-9.6-21.3-21.3v-362.7H213.3c-24.1 0-46.1-8.4-64-22V768c0 11.8 9.6 21.3 21.3 21.3H320v-320c0-15.9 16.7-26.2 30.9-19.1l97.1 48.6 97.1-48.6c14.2-7.1 30.9 3.2 30.9 19.1v320h277.3c11.8 0 21.3-9.6 21.3-21.3v-85.3c0.1-11.8 9.6-21.4 21.4-21.4zM213.3 106.70000000000005h661.3v-128H213.3c-35.3 0-64 28.7-64 64s28.7 64 64 64z m320 392.1l-75.8 37.9c-6 3-13.1 3-19.1 0l-75.8-37.9V789.3h170.7v-290.5z"  horiz-adv-x="1024" />
      
      <glyph glyph-name="kaoheguanli" unicode="&#59176;" d="M469.3 256c-11.7 0-21.3-9.6-21.3-21.3 0-11.7 9.6-21.3 21.3-21.3H640c11.7 0 21.3 9.6 21.3 21.3 0 11.7-9.6 21.3-21.3 21.3H469.3z m277.4 149.3c0 11.7-9.6 21.3-21.3 21.3h-256c-11.7 0-21.3-9.6-21.3-21.3 0-11.7 9.6-21.3 21.3-21.3h256c11.7 0 21.3 9.6 21.3 21.3zM469.3-21.299999999999955H170.7c-11.8 0-21.3 9.6-21.3 21.3V768c0 11.8 9.6 21.3 21.3 21.3h682.7c11.8 0 21.3-9.6 21.3-21.3v-469.3c0-11.8 9.6-21.3 21.3-21.3 11.8 0 21.3 9.6 21.3 21.3V789.3c0 23.6-19.1 42.7-42.7 42.7H149.3c-23.6 0-42.7-19.1-42.7-42.7v-810.7c0-23.6 19.1-42.7 42.7-42.7h320c11.8 0 21.3 9.6 21.3 21.3 0.1 11.9-9.5 21.5-21.3 21.5z m256 618.6h-256c-11.7 0-21.3-9.6-21.3-21.3s9.6-21.3 21.3-21.3h256c11.7 0 21.3 9.6 21.3 21.3s-9.5 21.3-21.3 21.3z m185.8-413.7c-8.3 8.3-21.8 8.3-30.2 0L684.8-12.5l-75.4 75.4c-8.3 8.3-21.8 8.3-30.2 0-8.3-8.3-8.3-21.8 0-30.2l90.4-90.4v-0.1c4.2-4.2 9.6-6.2 15.1-6.2s10.9 2.1 15.1 6.2v0.1l211.1 211.1c8.5 8.4 8.5 21.9 0.2 30.2zM362.7 426.7h-64c-11.7 0-21.3-9.6-21.3-21.3 0-11.7 9.6-21.3 21.3-21.3h64c11.7 0 21.3 9.6 21.3 21.3 0 11.7-9.6 21.3-21.3 21.3z m0 170.6h-64c-11.7 0-21.3-9.6-21.3-21.3s9.6-21.3 21.3-21.3h64c11.7 0 21.3 9.6 21.3 21.3s-9.6 21.3-21.3 21.3z m0-341.3h-64c-11.7 0-21.3-9.6-21.3-21.3 0-11.7 9.6-21.3 21.3-21.3h64c11.7 0 21.3 9.6 21.3 21.3 0 11.7-9.6 21.3-21.3 21.3z"  horiz-adv-x="1024" />
      
      <glyph glyph-name="jiaoshiguanli" unicode="&#59177;" d="M512 362.70000000000005c129.6 0 234.7 105.1 234.7 234.7S641.6 832 512 832 277.3 726.9 277.3 597.3c0-90 50.7-168 125-207.4C231.9 342.1 106.7 185.79999999999995 106.7 0c0-15.5 1.1-30.7 2.9-45.7 1.3-10.5 10.5-18.3 21.1-18.3 12.6 0 22.6 10.8 21.1 23.3-1.6 13.4-2.5 26.9-2.5 40.7 0 200 162.7 362.7 362.7 362.7zM320 597.3c0 105.9 86.1 192 192 192s192-86.1 192-192-86.1-192-192-192-192 86.2-192 192z m211.4-314.8c-3.8 8.3-11.6 12.5-19.4 12.5-7.8 0-15.6-4.2-19.4-12.5l-85.3-188.2c-3.7-8.1-1.9-17.6 4.3-23.9l85.3-85.5c4.2-4.2 9.6-6.3 15.1-6.3s10.9 2.1 15.1 6.3l85.3 85.5c6.3 6.3 8 15.8 4.3 23.9l-85.3 188.2zM512 30.200000000000045l-59.8 59.9L512 222l59.8-131.9-59.8-59.9z m194.3 325.1c-8.2 4.5-18.5 2.8-25.2-3.9-10-10-7.6-26.8 4.8-33.6C798.2 256.20000000000005 874.7 137 874.7 0c0-13.8-0.9-27.3-2.5-40.7-1.5-12.5 8.6-23.3 21.1-23.3 10.6 0 19.8 7.8 21.1 18.3 1.8 15 2.9 30.2 2.9 45.7 0 153.4-85.4 286.5-211 355.3z"  horiz-adv-x="1024" />
      
      <glyph glyph-name="wangkeguanli" unicode="&#59178;" d="M896 661.3c11.8 0 21.3 9.6 21.3 21.3V789.3c0 23.6-19.1 42.7-42.7 42.7H149.3c-23.6 0-42.7-19.1-42.7-42.7v-746.7c0-58.7 48-106.7 106.7-106.7H896c11.8 0 21.3 9.6 21.3 21.3V512c0 11.8-9.6 21.3-21.3 21.3s-21.3-9.6-21.3-21.3v-362.7H213.3c-24.1 0-46.1-8.4-64-22V768c0 11.8 9.6 21.3 21.3 21.3h682.7c11.8 0 21.3-9.6 21.3-21.3v-85.3c0.1-11.8 9.6-21.4 21.4-21.4zM213.3 106.70000000000005h661.3v-128H213.3c-35.3 0-64 28.7-64 64s28.7 64 64 64z m230.2 548.9c-5.9 3.7-12.7 5.7-19.4 5.7-7 0-13.8-2.1-19.5-6.5-9.7-7.5-15.9-19.1-15.9-32v-307.3c0-11.5 4.9-21.9 12.7-29.3 6.2-5.9 14.4-8.8 22.6-8.8 7 0 14 2.1 20.1 6.2l247.2 166.8c8 5.4 12.8 14.3 12.8 23.7 0 9.7-5 18.8-13.4 24.2L443.5 655.6z m-12.2-329.2V612.8l218.3-139.1-218.3-147.3z"  horiz-adv-x="1024" />
      
      <glyph glyph-name="bulujiesuan" unicode="&#59179;" d="M629.5 377.5c-8.7 8.7-23 8.7-31.7 0L512 291.70000000000005l-85.8 85.8c-8.7 8.7-23 8.7-31.7 0s-8.7-23 0-31.7l73.8-73.8h-46c-12.3 0-22.4-10.1-22.4-22.4 0-12.3 10.1-22.4 22.4-22.4h67.2v-44.8h-67.2c-12.3 0-22.4-10.1-22.4-22.4 0-12.3 10.1-22.4 22.4-22.4h67.2v-44.8c0-12.3 10.1-22.4 22.4-22.4s22.4 10.1 22.4 22.4v44.8h67.2c12.3 0 22.4 10.1 22.4 22.4 0 12.3-10.1 22.4-22.4 22.4h-67.2v44.8h67.2c12.3 0 22.4 10.1 22.4 22.4 0 12.3-10.1 22.4-22.4 22.4h-45.8l73.8 73.8c8.7 8.7 8.7 23 0 31.7zM915.2 204.70000000000005v-201.5c0-12.3-10.1-22.4-22.4-22.4H131.2c-12.3 0-22.4 10.1-22.4 22.4v448c0 12.3 10.1 22.4 22.4 22.4h761.6c12.3 0 22.4-10.1 22.4-22.4v-67.3c0-12.4 10-22.4 22.4-22.4 12.4 0 22.4 10 22.4 22.4v89.7c0 24.6-20.2 44.8-44.8 44.8h-82.6l2.2 2.2c17.7 17.5 17.7 45.9 0 63.4l-190 190c-17.5 17.7-45.9 17.7-63.4 0L564 756.5h-0.1L443.5 826c-21.5 12.3-48.8 5.2-61.2-16.4L214.1 518.4H108.8c-24.6 0-44.8-20.2-44.8-44.8v-492.8c0-24.6 20.2-44.8 44.8-44.8h806.4c24.6 0 44.8 20.2 44.8 44.8V204.70000000000005c0 12.4-10 22.4-22.4 22.4-12.4 0-22.4-10.1-22.4-22.4zM597.3 726.4c2.5 2.5 5.6 4.3 9 5.4 7.6 2.7 16.6 0.7 22.6-5.4L787.3 568c8.7-8.7 8.7-22.9 0-31.6l-18.1-18.1H389.1l208.2 208.1z m-331.5-208l144 249.3c6 10.8 19.9 14.6 30.5 8.3l90.7-52.4h0.1l-0.1-0.1-205.1-205.1h-60.1z"  horiz-adv-x="1024" />
      
      <glyph glyph-name="biyeguanli" unicode="&#59180;" d="M234.7 340.70000000000005c0-7.3 3.8-14.5 10.7-18.6 10.2-5.8 23.3-2.3 29.2 7.9l35 60.6c3.4-1.3 6.8-2.3 10.5-3.2 8.5-2.3 17.5-3.4 26.7-3.4s18.1 1.1 26.7 3.4c3.6 0.9 7 1.9 10.5 3.2l35-60.6c6-10.2 19-13.7 29.2-7.9 6.8 4.1 10.7 11.3 10.7 18.6 0 3.6-0.9 7.3-2.8 10.7l-35.8 62.1c20.5 19.4 33.3 46.7 33.3 77.2 0 58.9-47.8 106.7-106.7 106.7S240 549.5 240 490.7c0-30.5 12.8-57.8 33.3-77.2l-35.8-62.1c-2-3.5-2.8-7.1-2.8-10.7z m112 214c35.2 0 64-28.8 64-64 0-14.3-4.9-27.7-13-38.4-2.1-3-4.7-5.8-7.5-8.3-7.9-7.3-17.5-12.8-28.4-15.4-3.6-0.9-7.5-1.5-11.3-1.7-1.3-0.2-2.6-0.2-3.8-0.2-1.3 0-2.6 0-3.8 0.2-3.8 0.2-7.7 0.9-11.3 1.7-10.9 2.6-20.5 8.1-28.4 15.4-2.8 2.6-5.3 5.3-7.5 8.3-8.1 10.7-13 24.1-13 38.4 0 35.2 28.8 64 64 64z m592 64c11.8 0 21.3 9.6 21.3 21.3V746.7c0 23.6-19.1 42.7-42.7 42.7H106.7c-23.6 0-42.7-19.1-42.7-42.7v-725.3c0-23.6 19.1-42.7 42.7-42.7h810.7c23.6 0 42.7 19.1 42.7 42.7v448c0 11.8-9.6 21.3-21.3 21.3-11.8 0-21.3-9.6-21.3-21.3v-426.7c0-11.8-9.6-21.3-21.3-21.3H128c-11.8 0-21.3 9.6-21.3 21.3V725.3c0 11.8 9.6 21.3 21.3 21.3h768c11.8 0 21.3-9.6 21.3-21.3V640c0-11.8 9.6-21.3 21.4-21.3z m-384-149.4h128c11.8 0 21.3 9.6 21.3 21.3 0 11.8-9.6 21.3-21.3 21.3h-128c-11.8 0-21.3-9.6-21.3-21.3-0.1-11.7 9.5-21.3 21.3-21.3zM256 170.70000000000005h512c11.7 0 21.3 9.6 21.3 21.3s-9.6 21.3-21.3 21.3H256c-11.7 0-21.3-9.6-21.3-21.3s9.6-21.3 21.3-21.3zM768 384H554.7c-11.8 0-21.3-9.6-21.3-21.3 0-11.8 9.6-21.3 21.3-21.3H768c11.8 0 21.3 9.6 21.3 21.3 0 11.7-9.5 21.3-21.3 21.3z"  horiz-adv-x="1024" />
      
      <glyph glyph-name="kaohezhibiao" unicode="&#59181;" d="M298.7 405.3h64c11.7 0 21.3 9.6 21.3 21.3 0 11.7-9.6 21.3-21.3 21.3h-64c-11.7 0-21.3-9.6-21.3-21.3-0.1-11.7 9.5-21.3 21.3-21.3z m0 149.4h64c11.7 0 21.3 9.6 21.3 21.3s-9.6 21.3-21.3 21.3h-64c-11.7 0-21.3-9.6-21.3-21.3s9.5-21.3 21.3-21.3zM896 661.3c11.8 0 21.3 9.6 21.3 21.3V789.3c0 23.5-19.2 42.7-42.7 42.7H149.3c-23.5 0-42.7-19.2-42.7-42.7v-810.7c0-23.5 19.2-42.7 42.7-42.7h725.3c23.5 0 42.7 19.2 42.7 42.7V512c0 11.8-9.6 21.3-21.3 21.3s-21.3-9.6-21.3-21.3v-512c0-11.8-9.6-21.3-21.3-21.3H170.7c-11.8 0-21.3 9.6-21.3 21.3V768c0 11.8 9.6 21.3 21.3 21.3h682.7c11.8 0 21.3-9.6 21.3-21.3v-85.3c0-11.8 9.5-21.4 21.3-21.4zM238.3 116.10000000000002c4.1-6.1 10.9-9.4 17.7-9.4 4.1 0 8.2 1.2 11.9 3.6l178.8 120.3L552 165.79999999999995c5.8-3.6 12.9-4.1 19.2-1.6L691.6 213l63.5-48.6c9.3-7.2 22.7-5.4 29.9 4 7.2 9.4 5.4 22.7-4 29.9l-73.1 56c-6 4.6-13.9 5.6-21 2.8l-121.6-49.3-107.8 66.4c-7.1 4.4-16.1 4.2-23.1-0.5l-190.2-128c-9.9-6.6-12.5-19.8-5.9-29.6z m231 438.6h256c11.7 0 21.3 9.6 21.3 21.3 0 11.7-9.6 21.3-21.3 21.3h-256c-11.7 0-21.3-9.6-21.3-21.3 0-11.7 9.6-21.3 21.3-21.3z m0-149.4h256c11.7 0 21.3 9.6 21.3 21.3 0 11.7-9.6 21.3-21.3 21.3h-256c-11.7 0-21.3-9.6-21.3-21.3 0-11.7 9.6-21.3 21.3-21.3z"  horiz-adv-x="1024" />
      
      <glyph glyph-name="qiyeguanli" unicode="&#59262;" d="M111.2 444.4C138.4 625.2 287 768 468.9 787.1c119.2 12.5 229-27.5 310.3-99.1 3.9-3.4 8.8-5.3 13.9-5.3h0.5c0.7 0 1.2 0.3 1.9 0.4 1.8 0.2 3.6 0.5 5.2 1 1.4 0.5 2.6 1.2 3.8 2 0.7 0.4 1.3 0.8 1.9 1.3 5.1 3.9 8.6 9.7 8.6 16.6V810.7c0 11.8-9.6 21.3-21.3 21.3-11.8 0-21.3-9.6-21.3-21.3v-62.5c-85.4 61.3-193 93.4-308.6 81.3C273.5 809.5 115.4 666 74.4 479.1c-17.9-81.6-11.7-159.3 10.7-229.9 2.8-8.8 11.1-14.6 20.3-14.6 14.4 0 24.6 13.9 20.2 27.6-17.9 56.4-24 118-14.4 182.2zM938.9 518.7c-2.8 8.8-11.1 14.6-20.3 14.6-14.4 0-24.6-13.9-20.2-27.6 20.6-64.7 25.7-136.3 9.1-210.8-36.2-163-172.6-289.2-338-312.3-124.7-17.4-240 22.9-324.6 97.3-3.9 3.4-8.8 5.3-13.9 5.3h-0.5c-0.7 0-1.2-0.3-1.9-0.4-1.8-0.2-3.6-0.5-5.1-1-1.4-0.5-2.6-1.2-3.8-2-0.7-0.4-1.3-0.8-1.9-1.3-5.1-3.9-8.6-9.8-8.6-16.6v-106.7c0-11.8 9.6-21.3 21.3-21.3 11.8 0 21.3 9.6 21.3 21.3v62.5c84.8-60.9 191.5-93 306.4-81.5C745.2-42.89999999999998 902.1 95 947 277.6c21 85.6 15.3 167.3-8.1 241.1zM308.1 450.3c68.1 33.3 136.2 73.4 204.3 119.9 58.6-39.7 125.9-79.3 203-119 11.5-5.9 25-2.4 29.6 7.8 4.7 10.2-1.1 23.2-12.2 29.1-80.8 42.7-150.9 85.3-210.4 128-1.6 1.1-3.4 1.6-5.2 2.1-0.3 0.1-3 0.4-4.1 0.4-4.1 0.2-8.3-0.6-12.2-3.4-71.1-50.5-142.3-93.9-213.4-130.1-9.8-5-13.2-16.5-7.5-26 5.8-9.4 18.3-13.6 28.1-8.8zM298.7 192h426.7c11.8 0 21.3 9.6 21.3 21.3 0 11.8-9.6 21.3-21.3 21.3h-192V341.29999999999995h149.3c11.8 0 21.3 9.6 21.3 21.3 0 11.8-9.6 21.3-21.3 21.3H533.3v85.3c0 11.8-9.6 21.3-21.3 21.3-11.8 0-21.3-9.6-21.3-21.3v-234.7h-85.3V384c0 11.8-9.6 21.3-21.3 21.3s-21.3-9.6-21.3-21.3v-149.3h-64c-11.8 0-21.3-9.6-21.3-21.3-0.2-11.8 9.4-21.4 21.2-21.4z"  horiz-adv-x="1024" />
      
      <glyph glyph-name="chubuguanli" unicode="&#59263;" d="M917.3 789.3H362.7c-23.6 0-42.7-19.1-42.7-42.7V192c0-23.6 19.1-42.7 42.7-42.7h554.7c23.6 0 42.7 19.1 42.7 42.7V746.7c-0.1 23.5-19.2 42.6-42.8 42.6z m0-576c0-11.8-9.6-21.3-21.3-21.3H384c-11.8 0-21.3 9.6-21.3 21.3v512c0 11.8 9.6 21.3 21.3 21.3h512c11.8 0 21.3-9.6 21.3-21.3v-512zM682.7 85.29999999999995c-11.8 0-21.3-9.6-21.3-21.3v-21.3c0-11.8-9.6-21.3-21.3-21.3H128c-11.8 0-21.3 9.6-21.3 21.3v512c0 11.8 9.6 21.3 21.3 21.3h106.7c11.8 0 21.3 9.6 21.3 21.3 0 11.8-9.6 21.3-21.3 21.3h-128c-23.6 0.1-42.7-19-42.7-42.6v-554.7c0-23.6 19.1-42.7 42.7-42.7h554.7c23.6 0 42.7 19.1 42.7 42.7V64c-0.1 11.8-9.7 21.3-21.4 21.3zM797.1 588.9L600.8 392.7 495.1 498.4c-8.3 8.3-21.8 8.3-30.2 0-8.3-8.3-8.3-21.8 0-30.2l120.7-120.7c4.2-4.2 9.7-6.3 15.2-6.2 5.5 0 11 2 15.2 6.2l211.2 211.2c8.3 8.3 8.3 21.8 0 30.2-8.3 8.4-21.8 8.4-30.1 0z"  horiz-adv-x="1024" />
      
      <glyph glyph-name="hujiaobaobiao" unicode="&#59264;" d="M913.8 318.1c8.4 52.7 7.4 108.6-6.7 166.5-43.8 180-201.8 314-386.7 326.1C263 827.5 50.4 616.5 64.7 359.6c11.5-207.2 175-379.5 381.5-400.9 113.4-11.7 218.9 21 301.3 82.8 15.8 11.8 7.2 37-12.5 37-4.4 0-8.6-1.5-12.1-4.1-76.5-57.3-174.5-87.4-279.8-74.4-176.9 21.9-318.3 166.2-336.3 343.6C81.4 593.1 294.6 801.2 545.4 767.3c157.8-21.4 288-141.1 323.3-296.4 11.8-51.9 12.5-102.3 4.6-149.8-31.9-7.1-55.8-35.4-55.8-69.5 0-39.4 31.9-71.3 71.3-71.3s71.3 31.9 71.3 71.3c-0.1 30.5-19.4 56.4-46.3 66.5zM692.5 303.6c11.2 0 20.4 9.1 20.4 20.4V481.2c0 2.7-0.5 5.3-1.6 7.8-0.5 1.2-1.4 2.1-2.1 3.2-0.7 1.1-1.3 2.4-2.3 3.4-1 1-2.2 1.5-3.4 2.2-1.1 0.7-2 1.6-3.2 2.1-2.5 1-5.2 1.6-7.8 1.6H570.3c-11.2 0-20.4-9.2-20.4-20.4s9.2-20.4 20.4-20.4h73L498.1 315.6 397.3 416.4c-4 4-9.2 5.9-14.4 5.9-5.2 0-10.5-2-14.4-5.9L253.2 301.20000000000005c-7.9-7.9-7.9-20.9 0-28.8s20.9-7.9 28.8 0l100.8 100.8 100.8-100.8c4-4 9.2-5.9 14.4-5.9 5.2 0 10.4 2 14.4 5.9L672.1 432v-108c0-11.2 9.2-20.4 20.4-20.4z"  horiz-adv-x="1024" />
      
      <glyph glyph-name="saomiaodianjing" unicode="&#59265;" d="M938.7 405.3H874c-1.2 20.8-4 41.9-8.8 63.2-35.2 156.8-172.6 268-331.8 277.2v65c0 11.8-9.6 21.3-21.3 21.3-11.8 0-21.3-9.6-21.3-21.3v-65.1C307.9 735 161.2 588.9 150.4 405.3H85.3c-11.8 0-21.3-9.6-21.3-21.3 0-11.8 9.6-21.3 21.3-21.3h64.8c8.8-150.9 110-277.3 248.3-322.9 13.9-4.6 28.2 5.8 28.2 20.4 0 9.4-6.2 17.4-15.1 20.3-121 40.1-209.7 150.5-218.4 282.1h41.5c11.8 0 21.3 9.6 21.3 21.3 0 11.8-9.6 21.3-21.3 21.3h-41.5c2.6 40.5 12.4 82.4 31.6 124.5C272.1 633.9 377 699 490.7 703.6v-42.3c0-11.8 9.6-21.3 21.3-21.3 11.8 0 21.3 9.6 21.3 21.3v41.3c151-13.5 278.5-128 296.4-280.5 0.7-5.7 0.7-11.2 1-16.8h-41.5c-11.8 0-21.3-9.6-21.3-21.3 0-11.8 9.6-21.3 21.3-21.3h41.5C820 203.60000000000002 691.9 75.79999999999995 533.2 65.20000000000005v41.5c0 11.8-9.6 21.3-21.3 21.3-11.8 0-21.3-9.6-21.3-21.3v-149.3c0-11.8 9.6-21.3 21.3-21.3 11.8 0 21.3 9.6 21.3 21.3V22c182.9 10.6 330 157 340.6 340.7h64.7c11.8 0 21.3 9.6 21.3 21.3 0.2 11.8-9.4 21.3-21.1 21.3zM384 384c0-70.7 57.3-128 128-128s128 57.3 128 128-57.3 128-128 128-128-57.3-128-128z m213.3 0c0-47.1-38.3-85.3-85.3-85.3-47.1 0-85.3 38.3-85.3 85.3 0 47.1 38.3 85.3 85.3 85.3 47.1 0 85.3-38.2 85.3-85.3zM657.4 473.3c6-9.8 10.6-19.9 14.2-30.3 2.3-6.4 7.4-11.4 14-13l4.3-1c15.2-3.6 28 11 23 25.8-4.8 14-11.1 27.7-19.2 40.9-26.3 42.8-65.3 73-109.1 88.9-12 4.3-25.2-2.8-28.1-15.2-2.5-10.5 3.1-21.2 13.2-24.8 35.3-12.7 66.7-37 87.7-71.3z"  horiz-adv-x="1024" />
      
      <glyph glyph-name="jiezhang" unicode="&#59266;" d="M677.9 592.6c-8.3 8.3-21.9 8.3-30.2 0L512 456.8 376.3 592.6c-8.3 8.3-21.9 8.3-30.2 0s-8.3-21.9 0-30.2L460.5 448h-87.2c-11.7 0-21.3-9.6-21.3-21.3s9.6-21.3 21.3-21.3h117.3v-64H373.3c-11.7 0-21.3-9.6-21.3-21.3s9.6-21.3 21.3-21.3h117.3v-128c0-11.7 9.6-21.3 21.3-21.3s21.3 9.6 21.3 21.3v128h117.3c11.7 0 21.3 9.6 21.3 21.3s-9.6 21.3-21.3 21.3H533.3v64h117.3c11.7 0 21.3 9.6 21.3 21.3s-9.6 21.3-21.3 21.3h-87.2l114.4 114.4c8.4 8.3 8.4 21.9 0.1 30.2zM903.6 254.89999999999998l-75.3-75.3-45.2 45.2c-8.3 8.3-21.8 8.3-30.2 0-8.3-8.3-8.3-21.8 0-30.2l59.8-59.8c0.2-0.2 0.2-0.4 0.4-0.5 4.2-4.2 9.7-6.3 15.2-6.2 5.5 0 11 2 15.2 6.2 0.2 0.2 0.2 0.4 0.4 0.5l90 90c8.3 8.3 8.3 21.8 0 30.2-8.5 8.2-22 8.2-30.3-0.1zM487.9 831.4C261.7 819.5 76.5 634.3 64.6 408.1 51.1 149.79999999999995 256.6-64 512-64c100.5 0 193.2 33.2 267.9 89.1 16.6 12.4 7.7 38.9-13 38.9-4.6 0-9-1.5-12.7-4.3-80.6-60.4-184.1-92-295.3-77.6-183.2 23.6-329.8 173-349.8 356.6C82.6 582.4 273.6 789.3 512 789.3c223.5 0 405.3-181.8 405.3-405.3 0-13.8-0.9-27.4-2.4-40.8-1.4-12.5 8.6-23.2 21.2-23.2 10.7 0 20 8 21.2 18.6 1.7 14.9 2.7 30 2.7 45.4 0 255.4-213.7 460.9-472.1 447.4z"  horiz-adv-x="1024" />
      
      <glyph glyph-name="xiaoshoubaobiao" unicode="&#59267;" d="M746.9 684.6L551.3 510.7 449.1 612.9c-8.7 8.7-22.5 9.3-31.8 1.4l-171-143.5c-10-8.4-11.3-23.2-2.9-33.2 4.7-5.6 11.3-8.4 18.1-8.4 5.3 0 10.7 1.8 15.1 5.5L431 564.2l102.6-102.6c8.8-8.8 23-9.3 32.3-0.9l212.2 188.6c9.7 8.6 10.6 23.6 2 33.3-8.6 9.7-23.5 10.6-33.2 2zM936.4 666.9c13 0 23.6 10.6 23.6 23.6v94.3c0 25.9-21.2 47.2-47.2 47.2H111.2C85.2 832 64 810.8 64 784.8v-801.7c0-25.9 21.2-47.2 47.2-47.2h801.7c25.9 0 47.2 21.2 47.2 47.2V501.9c0 13-10.6 23.6-23.6 23.6-13 0-23.6-10.6-23.6-23.6v-377.3H111.2V761.3c0 13 10.6 23.6 23.6 23.6h754.5c13 0 23.6-10.6 23.6-23.6v-70.7c-0.1-13.1 10.5-23.7 23.5-23.7z m-23.6-589.4v-70.7c0-13-10.6-23.6-23.6-23.6H134.7c-13 0-23.6 10.6-23.6 23.6v70.7h801.7zM298.8 218.89999999999998h-45.2c-0.6 0-1 0.4-1 1V359.4c0 0.6 0.4 1 1 1h45.2c0.6 0 1-0.4 1-1v-139.5c0-0.5-0.5-1-1-1zM463.8 218.89999999999998h-45.2c-0.6 0-1 0.4-1 1V453.7c0 0.6 0.4 1 1 1h45.2c0.6 0 1-0.4 1-1v-233.8c0-0.5-0.4-1-1-1zM628.9 218.89999999999998h-45.2c-0.6 0-1 0.4-1 1V359.4c0 0.6 0.4 1 1 1h45.2c0.6 0 1-0.4 1-1v-139.5c0-0.5-0.5-1-1-1zM770.4 218.89999999999998h-45.2c-0.6 0-1 0.4-1 1V477.3c0 0.6 0.4 1 1 1h45.2c0.6 0 1-0.4 1-1v-257.4c0-0.5-0.5-1-1-1z"  horiz-adv-x="1024" />
      
      <glyph glyph-name="pingzheng" unicode="&#59268;" d="M931-25.799999999999955L819.4 85.89999999999998c72.1 88 67.1 218-15 300.1-87.5 87.5-229.3 87.5-316.8 0s-87.5-229.3 0-316.8c82.1-82.1 212.2-87.1 300.1-15l111.7-111.7c8.7-8.7 22.9-8.7 31.7 0 8.7 8.8 8.7 23-0.1 31.7zM772.6 101c-69.9-69.9-183.6-69.9-253.4 0-69.9 69.9-69.9 183.6 0 253.4 69.9 69.9 183.6 69.9 253.4 0 69.9-69.9 69.9-183.6 0-253.4zM310.4 70.39999999999998H153.6c-12.4 0-22.4 10-22.4 22.4v672c0 12.4 10 22.4 22.4 22.4H736c12.4 0 22.4-10 22.4-22.4v-224c0-12.4 10-22.4 22.4-22.4 12.4 0 22.4 10 22.4 22.4V787.2c0 24.7-20.1 44.8-44.8 44.8H131.2c-24.7 0-44.8-20.1-44.8-44.8v-716.8c0-24.7 20.1-44.8 44.8-44.8h179.2c12.4 0 22.4 10 22.4 22.4 0 12.4-10 22.4-22.4 22.4zM265.6 652.8c-12.4 0-22.4-10-22.4-22.4 0-12.4 10-22.4 22.4-22.4H624c12.4 0 22.4 10 22.4 22.4 0 12.4-10 22.4-22.4 22.4H265.6zM400 518.4H265.6c-12.4 0-22.4-10-22.4-22.4 0-12.4 10-22.4 22.4-22.4H400c12.4 0 22.4 10 22.4 22.4 0 12.4-10 22.4-22.4 22.4z"  horiz-adv-x="1024" />
      
      <glyph glyph-name="hetongyidong" unicode="&#59269;" d="M874.7 832H149.3c-23.5 0-42.7-19.2-42.7-42.7v-810.7c0-23.5 19.2-42.7 42.7-42.7H480c11.8 0 21.3 9.6 21.3 21.3 0 11.8-9.6 21.3-21.3 21.3H170.7c-11.7 0-21.3 9.6-21.3 21.3V768c0 11.7 9.6 21.3 21.3 21.3h682.7c11.7 0 21.3-9.6 21.3-21.3v-384c0-11.8 9.6-21.3 21.3-21.3 11.8 0 21.3 9.6 21.3 21.3V789.3c0 23.5-19.2 42.7-42.6 42.7zM512 597.3h213.3c11.7 0 21.3 9.6 21.3 21.3 0 11.7-9.6 21.3-21.3 21.3H512c-11.7 0-21.3-9.6-21.3-21.3 0-11.7 9.6-21.3 21.3-21.3zM405.3 341.29999999999995H298.7c-11.7 0-21.3-9.6-21.3-21.3s9.6-21.3 21.3-21.3h106.7c11.7 0 21.3 9.6 21.3 21.3s-9.6 21.3-21.4 21.3zM899.1 201.39999999999998l-108.4 15.8c-7 1-13 5.4-16.1 11.7l-48.4 98.5c-3.9 7.9-11.5 11.9-19.1 11.9-7.6 0-15.2-4-19.1-11.9l-48.4-98.5a21.3 21.3 0 0 0-16.1-11.7L515 201.39999999999998c-17.5-2.5-24.5-24-11.8-36.4l78.5-76.8c5-4.9 7.3-11.9 6.1-18.8L569.3-39c-2.4-13.8 8.6-25 21-25 3.3 0 6.7 0.8 10 2.5l96.8 51.1c3.1 1.6 6.5 2.5 10 2.5 3.4 0 6.8-0.8 10-2.5l96.8-51.1c3.3-1.7 6.7-2.5 10-2.5 12.4 0 23.4 11.2 21 25l-18.5 108.4c-1.2 6.9 1.1 13.9 6.1 18.8L911 165c12.5 12.4 5.5 33.9-11.9 36.4z m-96.6-82.7c-15-14.7-21.9-35.8-18.3-56.5l11.2-65.8-58.5 30.9c-9.2 4.8-19.5 7.4-29.9 7.4-10.4 0-20.7-2.6-29.9-7.4l-58.5-30.9 11.2 65.8c3.5 20.7-3.3 41.8-18.3 56.5l-47.7 46.7 65.7 9.6c20.9 3 38.9 16.2 48.2 35.1l29.3 59.5 29.3-59.5c9.3-18.9 27.3-32 48.2-35.1l65.7-9.6-47.7-46.7zM405.3 640H298.7c-11.8 0-21.3-9.6-21.3-21.3 0-11.8 9.6-21.3 21.3-21.3h106.7c11.8 0 21.3 9.6 21.3 21.3 0 11.7-9.6 21.3-21.4 21.3zM512 448h213.3c11.7 0 21.3 9.6 21.3 21.3 0 11.7-9.6 21.3-21.3 21.3H512c-11.7 0-21.3-9.6-21.3-21.3 0-11.7 9.6-21.3 21.3-21.3zM405.3 490.7H298.7c-11.8 0-21.3-9.6-21.3-21.3 0-11.8 9.6-21.3 21.3-21.3h106.7c11.8 0 21.3 9.6 21.3 21.3 0 11.7-9.6 21.3-21.4 21.3z"  horiz-adv-x="1024" />
      
      <glyph glyph-name="xiaoshoupin" unicode="&#59271;" d="M874.2 638.9l-320 181.9C541.1 828.3 526.5 832 512 832c-14.5 0-29.1-3.7-42.2-11.1L149.8 639c-26.7-15.2-43.2-43.5-43.2-74.2v-361.5c0-30.7 16.5-59 43.2-74.2l320-181.9c13.1-7.4 27.6-11.1 42.2-11.1 14.5 0 29.1 3.7 42.2 11.1l320 181.9c26.7 15.2 43.2 43.5 43.2 74.2V564.8c-0.1 30.7-16.5 59-43.2 74.1zM490.9 783.8c6.4 3.6 13.7 5.6 21.1 5.6s14.7-1.9 21.1-5.6l317.7-180.6-146.5-84.6L367 713.3l123.9 70.5z m-0.2-437.9v-361.6L170.9 166.10000000000002c-13.3 7.6-21.6 21.7-21.6 37.1v360l149.3-86.3v-165.5c0-8.1 4.6-15.5 11.8-19.1l30.9-15.4V452.2l124.2-71.7 25.2-14.5v-20.1z m17.5 59.4l-17.5 10-319.8 184.6v1.9l153.1 87 337.7-195-128.4-74.1-25.1-14.4z m366.5-202.1c0-15.3-8.2-29.5-21.6-37.1L533.3-15.600000000000023V370.5l17.3 10 321.5 185.7c1.1-0.6 1.4-0.8 2.5-1.5v-361.5z"  horiz-adv-x="1024" />
      
      <glyph glyph-name="xueshuguanli" unicode="&#59272;" d="M305.9 435.7c7.6 9 6.4 22.5-2.6 30.1-9 7.6-22.5 6.4-30.1-2.6l-54.9-65.4c-0.7-0.8-0.9-1.7-1.4-2.6-0.8-1.3-1.6-2.5-2.1-3.9s-0.7-2.9-0.9-4.4c-0.1-1-0.6-1.9-0.6-2.9v-170.7c0-11.8 9.6-21.3 21.3-21.3H384v-106.7c0-11.8 9.6-21.3 21.3-21.3h213.3c11.8 0 21.3 9.6 21.3 21.3V192h149.3c11.8 0 21.3 9.6 21.3 21.3V384c0 1-0.4 1.9-0.6 2.9-0.2 1.5-0.4 2.9-0.9 4.3s-1.3 2.6-2.1 3.9c-0.5 0.8-0.7 1.8-1.4 2.6l-54.9 65.4c-7.6 9-21 10.2-30.1 2.6-9-7.6-10.2-21-2.6-30.1l49.9-59.4v-34.9h-69.3c-14 61.5-57.1 111.9-114.5 135.2 21.1 19.5 34.5 47.1 34.5 78.1 0 58.9-47.8 106.7-106.7 106.7s-106.7-47.8-106.7-106.7c0-31 13.4-58.6 34.5-78.1-57.4-23.3-100.5-73.7-114.5-135.2H256v34.9l49.9 59.5z m291.4-329H426.7V192h170.7v-85.3z m-85.3 512c35.3 0 64-28.7 64-64s-28.7-64-64-64-64 28.7-64 64 28.7 64 64 64z m0-170.7c67.5 0 124.6-45.1 143-106.7H369C387.4 402.9 444.5 448 512 448zM320 298.70000000000005h448v-64H256v64h64zM958.9 414.7c-15 217.4-215.4 410.6-433.2 417.1C272 839.4 64 636 64 384c0-38.8 5.1-76.4 14.4-112.2 2.4-9.4 11.1-15.8 20.8-15.8 13.9 0 24.2 13 20.6 26.4-13.1 50.1-17.1 103.8-8.9 159.7C138 626.6 291 772.1 476.8 787.8 716.1 808.2 917.3 619.1 917.3 384c0-35.1-4.7-69-13.1-101.4-3.5-13.5 6.7-26.6 20.7-26.6 9.7 0 18.3 6.4 20.7 15.7 11.7 45.3 16.8 93.3 13.3 143zM815.7 106.70000000000005c-5.7 0-11.1-2.4-15.1-6.4C727 25.399999999999977 625-21.299999999999955 512-21.299999999999955s-215 46.7-288.6 121.6c-4 4.1-9.4 6.4-15.1 6.4-18.8 0-28.9-22.8-15.8-36.2C273.7-12.399999999999977 386.8-64 512-64s238.3 51.6 319.5 134.4c13.2 13.5 3.1 36.3-15.8 36.3z"  horiz-adv-x="1024" />
      
      </font>
</defs>
</svg>
